<?xml version="1.0" standalone="no"?>
<!DOCTYPE svg PUBLIC "-//W3C//DTD SVG 1.1//EN" "http://www.w3.org/Graphics/SVG/1.1/DTD/svg11.dtd" >
<svg xmlns="http://www.w3.org/2000/svg" xmlns:xlink="http://www.w3.org/1999/xlink" version="1.1">
<metadata>
Created by FontForge 20170731 at Mon Sep 27 10:42:08 2021
 By Aleksey,,,
Copyright 2020 The Open Sans Project Authors (https://github.com/googlefonts/opensans)
</metadata>
<defs>
<font id="OpenSans-SemiBoldItalic" horiz-adv-x="0" >
  <font-face 
    font-family="Open Sans SemiBold"
    font-weight="600"
    font-style="italic"
    font-stretch="normal"
    units-per-em="2048"
    panose-1="0 0 0 0 0 0 0 0 0 0"
    ascent="1638"
    descent="-410"
    x-height="1107"
    cap-height="1462"
    bbox="-996 -574 2591 2164"
    underline-thickness="50"
    underline-position="-175"
    slope="-12"
    unicode-range="U+000D-FFFD"
  />
<missing-glyph horiz-adv-x="1229" 
 />
    <glyph glyph-name="f_f" unicode="ff" horiz-adv-x="1370" 
d="M-74 -492q-43 0 -83.5 7t-68.5 16v192q30 -11 57.5 -16.5t57.5 -5.5q62 0 108 45.5t69 154.5l217 1028h-177l22 108l193 73l21 95q22 102 56.5 171.5t82 111.5t110 60.5t141.5 18.5q60 0 115.5 -12t96.5 -31l-62 -176q-29 12 -62 21t-73 9q-71 0 -113 -44t-62 -141
l-18 -86h433l22 99q23 101 57 170.5t81.5 111.5t110.5 60.5t142 18.5q60 0 115.5 -12t96.5 -31l-62 -176q-29 12 -62 21t-73 9q-71 0 -112.5 -44t-62.5 -141l-19 -86h229l-38 -178h-228l-224 -1060q-23 -106 -66.5 -187.5t-116.5 -127.5t-184 -46q-42 0 -83 7t-68 16v192
q29 -11 57 -16.5t59 -5.5q62 0 107.5 46t67.5 154l217 1028h-434l-224 -1060q-23 -106 -66.5 -187.5t-116.5 -127.5t-183 -46z" />
    <glyph glyph-name="fi" unicode="fi" horiz-adv-x="1264" 
d="M-74 -492q-43 0 -83.5 7t-68.5 16v192q30 -11 57.5 -16.5t57.5 -5.5q68 0 111.5 49.5t65.5 150.5l217 1028h-177l22 108l193 73l21 95q22 102 56.5 171.5t82 111.5t110 60.5t141.5 18.5q60 0 115.5 -12t96.5 -31l-62 -176q-29 12 -62 21t-73 9q-71 0 -113 -44t-62 -141
l-18 -86h227l-36 -178h-229l-224 -1060q-23 -106 -66.5 -187.5t-116.5 -127.5t-183 -46zM749 0l235 1107h234l-235 -1107h-234zM1153 1273q-52 0 -87 25.5t-35 80.5q0 46 17.5 80t51 52.5t80.5 18.5q52 0 85 -24.5t33 -78.5q0 -70 -39 -112t-106 -42z" />
    <glyph glyph-name="fl" unicode="fl" horiz-adv-x="1264" 
d="M-74 -492q-43 0 -83.5 7t-68.5 16v192q30 -11 57.5 -16.5t57.5 -5.5q68 0 111.5 49.5t65.5 150.5l217 1028h-177l22 108l193 73l21 95q22 102 56.5 171.5t82 111.5t110 60.5t141.5 18.5q60 0 115.5 -12t96.5 -31l-62 -176q-29 12 -62 21t-73 9q-71 0 -113 -44t-62 -141
l-18 -86h227l-36 -178h-229l-224 -1060q-23 -106 -66.5 -187.5t-116.5 -127.5t-183 -46zM748 0l331 1556h233l-330 -1556h-234z" />
    <glyph glyph-name="f_f_i" unicode="ffi" horiz-adv-x="1921" 
d="M-74 -492q-43 0 -83.5 7t-68.5 16v192q30 -11 57.5 -16.5t57.5 -5.5q62 0 108 45.5t69 154.5l217 1028h-177l22 108l193 73l21 95q22 102 56.5 171.5t82 111.5t110 60.5t141.5 18.5q60 0 115.5 -12t96.5 -31l-62 -176q-29 12 -62 21t-73 9q-71 0 -113 -44t-62 -141
l-18 -86h433l22 99q23 101 57 170.5t81.5 111.5t110.5 60.5t142 18.5q60 0 115.5 -12t96.5 -31l-62 -176q-29 12 -62 21t-73 9q-71 0 -112.5 -44t-62.5 -141l-19 -86h229l-38 -178h-228l-224 -1060q-23 -106 -66.5 -187.5t-116.5 -127.5t-184 -46q-42 0 -83 7t-68 16v192
q29 -11 57 -16.5t59 -5.5q62 0 107.5 46t67.5 154l217 1028h-434l-224 -1060q-23 -106 -66.5 -187.5t-116.5 -127.5t-183 -46zM1407 0l235 1107h234l-236 -1107h-233zM1811 1273q-51 0 -86 25.5t-35 80.5q0 46 17.5 80t51 52.5t79.5 18.5q51 0 84.5 -24.5t33.5 -78.5
q0 -70 -39.5 -112t-105.5 -42z" />
    <glyph glyph-name="f_f_l" unicode="ffl" horiz-adv-x="1923" 
d="M-74 -492q-43 0 -83.5 7t-68.5 16v192q30 -11 57.5 -16.5t57.5 -5.5q62 0 108 45.5t69 154.5l217 1028h-177l22 108l193 73l21 95q22 102 56.5 171.5t82 111.5t110 60.5t141.5 18.5q60 0 115.5 -12t96.5 -31l-62 -176q-29 12 -62 21t-73 9q-71 0 -113 -44t-62 -141
l-18 -86h433l22 99q23 101 57 170.5t81.5 111.5t110.5 60.5t142 18.5q60 0 115.5 -12t96.5 -31l-62 -176q-29 12 -62 21t-73 9q-71 0 -112.5 -44t-62.5 -141l-19 -86h229l-38 -178h-228l-224 -1060q-23 -106 -66.5 -187.5t-116.5 -127.5t-184 -46q-42 0 -83 7t-68 16v192
q29 -11 57 -16.5t59 -5.5q62 0 107.5 46t67.5 154l217 1028h-434l-224 -1060q-23 -106 -66.5 -187.5t-116.5 -127.5t-183 -46zM1408 0l329 1556h234l-331 -1556h-232z" />
    <glyph glyph-name=".notdef" horiz-adv-x="1229" 
 />
    <glyph glyph-name=".null" 
 />
    <glyph glyph-name="nonmarkingreturn" horiz-adv-x="682" 
 />
    <glyph glyph-name="NULL" 
 />
    <glyph glyph-name="NULL" 
 />
    <glyph glyph-name="CR" unicode="&#xd;" horiz-adv-x="532" 
 />
    <glyph glyph-name="space" unicode=" " horiz-adv-x="532" 
 />
    <glyph glyph-name="exclam" unicode="!" horiz-adv-x="555" 
d="M150 446l178 1016h271l-253 -1016h-196zM163 -27q-67 0 -97.5 35.5t-30.5 87.5q0 67 40 122t134 55q56 0 89.5 -32.5t33.5 -91.5q0 -71 -44 -123.5t-125 -52.5z" />
    <glyph glyph-name="quotedbl" unicode="&#x22;" horiz-adv-x="857" 
d="M586 934l75 528h229l-151 -528h-153zM212 934l74 528h229l-151 -528h-152z" />
    <glyph glyph-name="numbersign" unicode="#" horiz-adv-x="1320" 
d="M184 0l117 420h-249l15 166h281l86 288h-265l15 166h294l122 422h177l-122 -422h252l122 422h172l-120 -422h252l-16 -166h-284l-84 -288h271l-15 -166h-303l-120 -420h-179l124 420h-249l-121 -420h-173zM524 586h251l82 288h-249z" />
    <glyph glyph-name="dollar" unicode="$" horiz-adv-x="1128" 
d="M354 -119l47 211q-96 6 -183 26t-155 53v210q77 -42 176 -70.5t200 -31.5l84 388q-86 32 -153 76.5t-104.5 108.5t-37.5 156q0 119 58 201t159 127.5t229 55.5l37 162h131l-34 -163q80 -8 151 -28t137 -55l-84 -183q-54 28 -117.5 49t-127.5 25l-79 -372
q92 -35 160 -77.5t105.5 -104t37.5 -153.5q0 -115 -54 -200t-157 -136t-250 -64l-44 -211h-132zM571 284q54 7 97.5 30t68.5 62.5t25 93.5q0 35 -13.5 62.5t-40 48.5t-65.5 36zM567 876l67 323q-51 -6 -92.5 -26.5t-65.5 -58.5t-24 -95q0 -32 13 -59t38 -48t64 -36z" />
    <glyph glyph-name="percent" unicode="%" horiz-adv-x="1691" 
d="M232 0l1087 1462h192l-1084 -1462h-195zM397 565q-124 0 -190.5 80t-66.5 227q0 67 12 148.5t40 162.5t74.5 149t115 109.5t162.5 41.5q126 0 193.5 -76t67.5 -222q0 -63 -12.5 -144.5t-41 -164.5t-75.5 -153.5t-116 -114t-163 -43.5zM414 732q42 0 75 33t56.5 86
t38.5 114.5t22 120t7 100.5q0 68 -21 99.5t-62 31.5t-73.5 -31t-56 -81t-39 -110.5t-23 -120.5t-7.5 -109q0 -66 20.5 -99.5t62.5 -33.5zM1203 -19q-127 0 -194 76.5t-67 219.5q0 74 12.5 158.5t41 166.5t75 149t114.5 107t161 40q126 0 194 -75.5t68 -217.5
q0 -66 -13 -148.5t-41.5 -166t-75.5 -153.5t-115 -113t-160 -43zM1215 147q43 0 75.5 33t56.5 86t39 115t22.5 120t7.5 99q0 69 -21.5 100.5t-63.5 31.5q-41 0 -73 -31t-55 -81t-38.5 -110.5t-22.5 -120.5t-7 -108q0 -67 19.5 -100.5t60.5 -33.5z" />
    <glyph glyph-name="ampersand" unicode="&#x26;" horiz-adv-x="1415" 
d="M472 -20q-186 0 -294.5 95t-108.5 274q0 107 42.5 188t125.5 147t206 125q-40 66 -65 137t-25 145q0 121 51.5 209.5t144 136.5t216.5 48q113 0 189 -39t114.5 -106.5t38.5 -152.5q0 -103 -49.5 -179.5t-136 -134.5t-197.5 -109l237 -327q63 67 105.5 142.5t75.5 157.5
h233q-38 -90 -83.5 -171t-98.5 -152.5t-115 -135.5l202 -278h-273l-95 132q-88 -67 -192 -109.5t-248 -42.5zM510 177q61 0 112 14.5t96 39.5t86 55l-265 380q-64 -34 -116.5 -73.5t-83 -93t-30.5 -130.5q0 -56 25 -99.5t70.5 -68t105.5 -24.5zM633 900q46 23 90.5 48.5
t81.5 57t59 70.5t22 87q0 66 -37 101.5t-97 35.5q-58 0 -98.5 -25t-61.5 -69.5t-21 -104.5q0 -54 16 -106t46 -95z" />
    <glyph glyph-name="quotesingle" unicode="'" horiz-adv-x="481" 
d="M212 934l74 528h229l-151 -528h-152z" />
    <glyph glyph-name="parenleft" unicode="(" horiz-adv-x="639" 
d="M225 -324q-48 86 -81 182.5t-50 201t-17 215.5q0 180 33.5 342t98 308t158 279.5t214.5 257.5h209q-110 -119 -201.5 -253t-158.5 -282.5t-103.5 -312t-36.5 -343.5q0 -111 13.5 -214.5t40 -198.5t63.5 -182h-182z" />
    <glyph glyph-name="parenright" unicode=")" horiz-adv-x="639" 
d="M-151 -324q110 120 201.5 254t158 282.5t103 312t36.5 343.5q0 111 -13.5 214t-39 198.5t-63.5 181.5h182q48 -85 80.5 -181.5t49.5 -201t17 -216.5q0 -180 -33 -341.5t-97.5 -307.5t-158 -279.5t-215.5 -258.5h-208z" />
    <glyph glyph-name="asterisk" unicode="*" horiz-adv-x="1120" 
d="M742 601l-103 367l-227 -305l-161 140l291 264l-348 105l70 193l353 -181l39 384l210 -42l-115 -369l402 27l-13 -205l-364 41l169 -358z" />
    <glyph glyph-name="plus" unicode="+" horiz-adv-x="1171" 
d="M704 811h400v-178h-400v-404h-178v404h-399v178h399v408h178v-408z" />
    <glyph glyph-name="comma" unicode="," horiz-adv-x="546" 
d="M-95 -264q37 82 73 171t68.5 174.5t57.5 156.5h233l8 -23q-33 -72 -76 -155t-91.5 -166t-96.5 -158h-176z" />
    <glyph glyph-name="hyphen" unicode="-" horiz-adv-x="650" 
d="M49 448l43 202h503l-43 -202h-503z" />
    <glyph glyph-name="period" unicode="." horiz-adv-x="549" 
d="M162 -27q-66 0 -96.5 35t-30.5 86q0 69 40.5 124t134.5 55q55 0 88.5 -32t33.5 -91q0 -72 -44.5 -124.5t-125.5 -52.5z" />
    <glyph glyph-name="slash" unicode="/" horiz-adv-x="790" 
d="M-91 0l812 1462h232l-811 -1462h-233z" />
    <glyph glyph-name="zero" unicode="0" horiz-adv-x="1128" 
d="M476 -20q-192 0 -287.5 127t-95.5 362q0 118 16 238t49.5 234t85 212.5t121 173t158 116.5t196.5 42q94 0 165.5 -29t120 -88t73 -147t24.5 -205q0 -126 -16 -251.5t-48.5 -241.5t-83 -214.5t-120 -172t-159 -115t-199.5 -41.5zM498 176q60 0 110 37t90.5 101.5t71.5 149
t52.5 179t32 192t10.5 188.5q0 132 -40.5 199t-123.5 67q-60 0 -111 -38.5t-92.5 -105t-73 -150.5t-53 -176t-32.5 -183t-11 -170q0 -141 40 -215.5t130 -74.5z" />
    <glyph glyph-name="one" unicode="1" horiz-adv-x="1128" 
d="M402 0l189 881q11 49 24.5 106t28.5 112t27 96q-25 -23 -60.5 -50t-71.5 -50l-193 -122l-106 170l512 319h197l-311 -1462h-236z" />
    <glyph glyph-name="two" unicode="2" horiz-adv-x="1128" 
d="M-20 0l36 178l475 425q94 84 161 150t110 122.5t63.5 110.5t20.5 113q0 85 -49.5 134.5t-137.5 49.5q-54 0 -104.5 -16.5t-101 -47.5t-107.5 -76l-112 159q95 78 206 129.5t253 51.5q132 0 219.5 -46.5t131 -124t43.5 -172.5q0 -125 -51.5 -228t-150.5 -204.5
t-242 -223.5l-315 -269v-9h623l-42 -206h-929z" />
    <glyph glyph-name="three" unicode="3" horiz-adv-x="1128" 
d="M416 -20q-116 0 -213 20.5t-173 59.5v214q77 -45 178.5 -73t201.5 -28q79 0 142 18t107.5 52.5t68 85t23.5 115.5q0 68 -29.5 116.5t-91.5 75t-160 26.5h-136l37 179h105q71 0 138.5 16.5t121 50.5t84.5 86t31 123q0 77 -49.5 124t-140.5 47q-93 0 -169.5 -33t-143.5 -78
l-102 161q92 63 199 104t256 41q128 0 214.5 -42t130.5 -116t44 -170q0 -103 -44 -185.5t-125.5 -137.5t-197.5 -76v-9q113 -21 189.5 -98.5t76.5 -213.5q0 -87 -33.5 -168.5t-103.5 -146t-178.5 -102.5t-257.5 -38z" />
    <glyph glyph-name="four" unicode="4" horiz-adv-x="1128" 
d="M551 0l68 321h-624l38 192l804 950h251l-200 -948h200l-42 -194h-200l-68 -321h-227zM260 515h400l70 314q14 64 31.5 134.5t35.5 132.5t29 98h-9q-25 -40 -63.5 -93.5t-71.5 -92.5z" />
    <glyph glyph-name="five" unicode="5" horiz-adv-x="1128" 
d="M410 -20q-72 0 -137.5 10t-121.5 28t-99 43v215q73 -44 161 -72t183 -28q99 0 169 25.5t114 70t64.5 101.5t20.5 119q0 102 -61.5 166t-190.5 64q-63 0 -119 -10.5t-108 -24.5l-88 66l203 709h713l-43 -207h-508l-109 -366q31 7 70 13t88 6q116 0 205 -44.5t139.5 -130.5
t50.5 -213q0 -105 -33.5 -201.5t-104.5 -173t-184.5 -121t-273.5 -44.5z" />
    <glyph glyph-name="six" unicode="6" horiz-adv-x="1128" 
d="M515 -20q-129 0 -220 53.5t-138.5 158t-47.5 257.5q0 113 20.5 231.5t61 233t100.5 214t138 173.5q63 60 138 101t165.5 61.5t197.5 20.5q58 0 112.5 -7t92.5 -18l-42 -195q-36 11 -82.5 18t-99.5 7q-134 0 -239 -56t-180.5 -172t-121.5 -299h8q36 50 85 89t110.5 61
t134.5 22q152 0 241.5 -95t89.5 -273q0 -96 -29 -198.5t-91 -190.5t-161.5 -142.5t-242.5 -54.5zM530 174q67 0 118.5 31.5t86.5 85t53 120t18 136.5q0 95 -45 148t-135 53q-69 0 -125.5 -33t-94.5 -81t-51 -94q-6 -18 -9.5 -38t-5 -41t-1.5 -42q0 -49 11 -93.5t34.5 -78.5
t59.5 -53.5t86 -19.5z" />
    <glyph glyph-name="seven" unicode="7" horiz-adv-x="1128" 
d="M126 0l755 1259h-676l43 203h936l-33 -162l-762 -1300h-263z" />
    <glyph glyph-name="eight" unicode="8" horiz-adv-x="1128" 
d="M508 -20q-145 0 -241.5 49t-144.5 132.5t-48 185.5q0 107 44 188.5t127.5 141.5t200.5 103q-47 35 -86 79t-63 100.5t-24 128.5q0 116 56.5 205.5t159 140.5t241.5 51q134 0 219.5 -45.5t127 -120t41.5 -161.5q0 -107 -46.5 -182.5t-121.5 -126.5t-162 -85
q63 -38 114 -88.5t82 -118t31 -159.5q0 -110 -55 -205t-167.5 -154t-284.5 -59zM528 163q87 0 143.5 33t84.5 86t28 113q0 63 -22.5 112.5t-64.5 89.5t-102 74q-87 -29 -151 -69t-99.5 -96.5t-35.5 -137.5q0 -95 60.5 -150t158.5 -55zM647 866q77 29 131 66t82.5 86
t28.5 113q0 80 -49 125.5t-130 45.5q-64 0 -111 -26t-73 -71.5t-26 -106.5q0 -84 41 -138.5t106 -93.5z" />
    <glyph glyph-name="nine" unicode="9" horiz-adv-x="1128" 
d="M332 -20q-64 0 -129 9.5t-112 23.5v205q46 -15 107 -28.5t130 -13.5q106 0 186 37t138.5 105t98.5 163t67 211h-9q-33 -48 -79 -84.5t-103.5 -57t-127.5 -20.5q-115 0 -192 47.5t-116 134.5t-39 203q0 78 19.5 158t60 154t103.5 131.5t150 91.5t199 34q123 0 212 -50.5
t137 -154.5t48 -262q0 -108 -18.5 -226t-54 -233t-87.5 -215t-120 -173q-45 -48 -96.5 -83.5t-110 -59t-124 -35.5t-138.5 -12zM566 716q65 0 118.5 28.5t91 75.5t54.5 103q10 28 14 60t4 69q0 69 -20 123t-61.5 84.5t-103.5 30.5q-68 0 -120 -30.5t-87 -81t-53 -114.5
t-18 -132q0 -104 47 -160t134 -56z" />
    <glyph glyph-name="colon" unicode=":" horiz-adv-x="549" 
d="M336 831q-65 0 -96 34.5t-31 84.5q0 47 18 88t56.5 67t101.5 26q55 0 88.5 -32t33.5 -92q0 -72 -44.5 -124t-126.5 -52zM162 -27q-66 0 -96.5 35t-30.5 86q0 69 40.5 124t134.5 55q55 0 88.5 -32t33.5 -91q0 -72 -44.5 -124.5t-125.5 -52.5z" />
    <glyph glyph-name="semicolon" unicode=";" horiz-adv-x="549" 
d="M-100 -264q36 82 72 171t68.5 174.5t57.5 156.5h234l7 -23q-33 -72 -76 -155t-91 -166t-96 -158h-176zM336 831q-66 0 -96.5 34.5t-30.5 84.5q0 47 18 88t56.5 67t101.5 26q55 0 88.5 -32t33.5 -92q0 -72 -44.5 -124t-126.5 -52z" />
    <glyph glyph-name="less" unicode="&#x3c;" horiz-adv-x="1171" 
d="M1104 223l-977 432v119l977 486v-194l-733 -343l733 -307v-193z" />
    <glyph glyph-name="equal" unicode="=" horiz-adv-x="1171" 
d="M133 833v176h965v-176h-965zM133 434v177h965v-177h-965z" />
    <glyph glyph-name="greater" unicode="&#x3e;" horiz-adv-x="1171" 
d="M127 416l733 306l-733 344v194l977 -486v-119l-977 -432v193z" />
    <glyph glyph-name="question" unicode="?" horiz-adv-x="908" 
d="M260 446q16 93 45 161.5t78.5 125.5t128.5 114q66 47 116 88.5t77.5 87.5t27.5 107q0 74 -41.5 116t-125.5 42q-75 0 -148.5 -26.5t-151.5 -64.5l-76 174q87 47 191.5 79.5t215.5 32.5q170 0 269 -85t99 -241q0 -98 -37 -172t-104 -136t-157 -126q-69 -48 -110 -86
t-63 -81.5t-38 -109.5h-196zM286 -27q-66 0 -96.5 35t-30.5 86q0 69 40.5 124t134.5 55q55 0 88.5 -32t33.5 -91q0 -72 -44.5 -124.5t-125.5 -52.5z" />
    <glyph glyph-name="at" unicode="@" horiz-adv-x="1744" 
d="M794 -186q-164 0 -292.5 49.5t-218 140.5t-136 217.5t-46.5 280.5q0 167 46 313t132 265t205 204t264.5 130.5t310.5 45.5q212 0 356.5 -78t218 -217t73.5 -320q0 -103 -21.5 -197.5t-61.5 -174t-97 -138.5t-129 -91.5t-156 -32.5q-96 0 -148.5 45t-65.5 121h-9
q-44 -73 -109.5 -119.5t-163.5 -46.5q-113 0 -185.5 73t-72.5 224q0 91 24.5 174t71 153t111 121.5t143.5 80t169 28.5q103 0 174.5 -17.5t128.5 -39.5l-100 -389q-15 -54 -23.5 -91.5t-8.5 -71.5q0 -51 22.5 -72t57.5 -21q47 0 88.5 27t74.5 74t56.5 107.5t36 128.5
t12.5 137q0 136 -50.5 241.5t-159 165.5t-282.5 60q-132 0 -247 -38t-207.5 -107.5t-159 -167t-101.5 -217.5t-35 -258q0 -158 58 -281t176 -192.5t298 -69.5q118 0 224.5 23.5t205.5 61.5v-155q-100 -40 -214.5 -64.5t-237.5 -24.5zM789 363q91 0 150 81t95 213l63 240
q-20 7 -46 12.5t-60 5.5q-72 0 -130.5 -34t-100 -91.5t-64 -127.5t-22.5 -142q0 -85 32 -121t83 -36z" />
    <glyph glyph-name="A" unicode="A" horiz-adv-x="1217" 
d="M-119 0l784 1462h275l166 -1462h-232l-41 407h-489l-210 -407h-253zM447 613h370l-33 359q-5 67 -11 141.5t-6 141.5h-6q-25 -65 -58 -134.5t-71 -142.5z" />
    <glyph glyph-name="B" unicode="B" horiz-adv-x="1250" 
d="M70 0l309 1462h402q138 0 238 -34t154.5 -106t54.5 -188q0 -99 -39.5 -175.5t-112 -126t-173.5 -69.5v-9q101 -27 164 -99.5t63 -188.5q0 -158 -74.5 -261.5t-203 -154t-292.5 -50.5h-490zM349 201h224q96 0 166.5 30t109 89t38.5 145q0 91 -56.5 146t-180.5 55h-202z
M488 859h200q85 0 151.5 24.5t105 76t38.5 131.5q0 84 -53.5 128t-170.5 44h-185z" />
    <glyph glyph-name="C" unicode="C" horiz-adv-x="1229" 
d="M664 -20q-170 0 -287.5 69.5t-178.5 196.5t-61 301q0 132 30.5 266t92.5 254.5t156 214t220.5 148t286.5 54.5q122 0 213.5 -23t178.5 -70l-93 -195q-64 36 -136 60t-163 24q-111 0 -198.5 -42t-152 -115t-106.5 -166.5t-63 -196t-21 -203.5q0 -179 83 -275.5t244 -96.5
q85 0 168.5 19t164.5 49v-204q-70 -26 -162.5 -47.5t-215.5 -21.5z" />
    <glyph glyph-name="D" unicode="D" horiz-adv-x="1377" 
d="M70 0l309 1462h368q268 0 417 -142.5t149 -425.5q0 -158 -35.5 -295t-104.5 -247.5t-171 -189t-235 -120.5t-295 -42h-402zM349 201h135q116 0 209.5 35t163.5 98.5t117 149.5t70.5 188.5t23.5 214.5q0 195 -93.5 285.5t-252.5 90.5h-148z" />
    <glyph glyph-name="E" unicode="E" horiz-adv-x="1084" 
d="M70 0l309 1462h779l-43 -202h-542l-84 -397h507l-42 -201h-507l-98 -459h542l-43 -203h-778z" />
    <glyph glyph-name="F" unicode="F" horiz-adv-x="1033" 
d="M70 0l309 1462h777l-42 -202h-541l-96 -457h505l-44 -202h-505l-127 -601h-236z" />
    <glyph glyph-name="G" unicode="G" horiz-adv-x="1403" 
d="M682 -20q-257 0 -401 145.5t-144 415.5q0 155 36 296.5t105 259.5t169.5 205t229 134.5t282.5 47.5q122 0 221.5 -23.5t194.5 -68.5l-90 -200q-75 38 -157 62t-177 24q-132 0 -237 -57.5t-179.5 -157.5t-113.5 -230t-39 -275q0 -114 36 -198t112 -129.5t193 -45.5
q66 0 119.5 9.5t99.5 22.5l82 373h-284l44 203h516l-158 -735q-96 -34 -204.5 -56t-255.5 -22z" />
    <glyph glyph-name="H" unicode="H" horiz-adv-x="1414" 
d="M71 0l309 1462h237l-127 -598h570l126 598h236l-309 -1462h-237l140 660h-569l-140 -660h-236z" />
    <glyph glyph-name="I" unicode="I" horiz-adv-x="605" 
d="M69 0l311 1462h236l-312 -1462h-235z" />
    <glyph glyph-name="J" unicode="J" horiz-adv-x="614" 
d="M-150 -407q-56 0 -98.5 7.5t-73.5 17.5l3 200q33 -8 72 -14t84 -6q65 0 115 26.5t85.5 81.5t53.5 142l301 1414h237l-307 -1445q-33 -151 -95.5 -244.5t-156.5 -136.5t-220 -43z" />
    <glyph glyph-name="K" unicode="K" horiz-adv-x="1201" 
d="M70 0l309 1462h237l-154 -713l141 171l500 542h283l-618 -670l322 -792h-262l-253 656l-153 -102l-116 -554h-236z" />
    <glyph glyph-name="L" unicode="L" horiz-adv-x="1022" 
d="M70 0l309 1462h237l-267 -1258h542l-43 -204h-778z" />
    <glyph glyph-name="M" unicode="M" horiz-adv-x="1758" 
d="M69 0l309 1462h321l109 -1153h8l609 1153h341l-307 -1462h-225l169 800q16 76 34 151.5t35.5 143.5t31.5 119h-7l-644 -1214h-207l-114 1214h-8q-4 -43 -15 -112t-25 -148.5t-30 -154.5l-168 -799h-217z" />
    <glyph glyph-name="N" unicode="N" horiz-adv-x="1494" 
d="M69 0l309 1462h267l402 -1150h6q7 46 18 113.5t25 140.5t27 135l162 761h217l-309 -1462h-260l-411 1167h-7q-3 -23 -10 -69.5t-16.5 -106.5t-20.5 -122t-23 -115l-159 -754h-217z" />
    <glyph glyph-name="O" unicode="O" horiz-adv-x="1486" 
d="M678 -20q-177 0 -297.5 69.5t-182 196.5t-61.5 297q0 120 21.5 235.5t63.5 220.5t105.5 194t147.5 154.5t188.5 101.5t228.5 36q256 0 392.5 -151t136.5 -410q0 -120 -19.5 -236.5t-60 -222t-101.5 -194t-143.5 -153.5t-187 -101.5t-231.5 -36.5zM692 185q73 0 137 26
t117.5 73.5t96 114.5t72 149t45.5 176.5t16 197.5q0 167 -78.5 263t-223.5 96q-75 0 -140.5 -26.5t-120.5 -76t-97.5 -117t-72.5 -149.5t-45.5 -174.5t-15.5 -192.5q0 -114 36.5 -195t106 -123t167.5 -42z" />
    <glyph glyph-name="P" unicode="P" horiz-adv-x="1204" 
d="M70 0l309 1462h368q167 0 268.5 -50t148 -140.5t46.5 -211.5q0 -126 -44.5 -221.5t-127.5 -160t-200.5 -97t-263.5 -32.5h-152l-116 -549h-236zM465 747h134q114 0 197 34.5t128.5 103t45.5 168.5q0 109 -60 159.5t-181 50.5h-155z" />
    <glyph glyph-name="Q" unicode="Q" horiz-adv-x="1486" 
d="M905 -348l-199 329q-8 0 -15 -0.5t-14 -0.5q-177 1 -297 70t-181.5 195.5t-61.5 297.5q0 120 21.5 235.5t63.5 220.5t105.5 194t147.5 154.5t188.5 101.5t228.5 36q256 0 392.5 -151t136.5 -410q0 -118 -19.5 -232t-58.5 -217.5t-98 -191t-137.5 -153t-176.5 -102.5
l262 -376h-288zM692 185q74 0 138 26t118 73.5t96 114.5t71.5 149t45 176.5t15.5 197.5q0 167 -78.5 263t-223.5 96q-75 0 -140.5 -26.5t-120.5 -76t-97.5 -117t-72.5 -149.5t-45.5 -174.5t-15.5 -192.5q0 -114 36.5 -195t106 -123t167.5 -42z" />
    <glyph glyph-name="R" unicode="R" horiz-adv-x="1209" 
d="M70 0l309 1462h339q222 0 342 -93.5t120 -289.5q0 -112 -39.5 -200t-116.5 -149.5t-190 -95.5l251 -634h-258l-210 586h-187l-124 -586h-236zM472 784h127q83 0 146.5 19t106 54.5t64 88t21.5 118.5q0 105 -60 151.5t-184 46.5h-119z" />
    <glyph glyph-name="S" unicode="S" horiz-adv-x="1059" 
d="M390 -20q-110 0 -196.5 20t-153.5 58v220q77 -41 163.5 -68.5t188.5 -27.5q60 0 113 12.5t94 39.5t64 68.5t23 98.5q0 58 -24 100t-71 79.5t-118 81.5q-68 44 -127 97t-95 123.5t-36 167.5q0 100 36.5 180t103 136.5t156 86.5t194.5 30q114 0 205 -23.5t176 -68.5
l-87 -188q-67 33 -141.5 54.5t-152.5 21.5q-52 0 -96.5 -14t-77.5 -41t-51.5 -66.5t-18.5 -90.5q0 -58 23 -98t67 -73.5t107 -72.5q85 -53 146 -109t93 -125t32 -163q0 -113 -40.5 -196.5t-114 -139t-171.5 -83t-213 -27.5z" />
    <glyph glyph-name="T" unicode="T" horiz-adv-x="1055" 
d="M291 0l266 1258h-380l43 204h998l-42 -204h-381l-266 -1258h-238z" />
    <glyph glyph-name="U" unicode="U" horiz-adv-x="1402" 
d="M609 -20q-150 0 -252 49t-153 140.5t-51 218.5q0 33 4.5 78t14.5 90l193 906h237l-193 -908q-9 -41 -14.5 -82t-5.5 -70q0 -103 60.5 -160t180.5 -57q106 0 176 38.5t113.5 115.5t67.5 191l198 932h237l-202 -954q-34 -159 -107 -278t-196 -184.5t-308 -65.5z" />
    <glyph glyph-name="V" unicode="V" horiz-adv-x="1167" 
d="M332 0l-144 1462h231l74 -915q5 -48 7.5 -101.5t3 -105t-2.5 -94.5h7q17 46 37 94.5t44 100.5t51 106l461 915h251l-764 -1462h-256z" />
    <glyph glyph-name="W" unicode="W" horiz-adv-x="1789" 
d="M258 0l-54 1462h226l19 -856q2 -80 -1 -170.5t-9 -170.5h7q28 79 64.5 173.5t72.5 170.5l392 853h221l32 -852q4 -72 4 -169.5t-3 -176.5h7q18 54 39.5 114t44 119.5t44.5 111.5l363 853h244l-655 -1462h-259l-32 818q-2 66 -3.5 119.5t-2 100.5t0.5 93h-7
q-22 -71 -49 -138.5t-64 -148.5l-387 -844h-255z" />
    <glyph glyph-name="X" unicode="X" horiz-adv-x="1156" 
d="M-112 0l588 769l-250 693h245l179 -544l405 544h264l-550 -711l274 -751h-255l-194 593l-442 -593h-264z" />
    <glyph glyph-name="Y" unicode="Y" horiz-adv-x="1096" 
d="M308 0l119 555l-239 907h240l156 -668l434 668h267l-624 -910l-116 -552h-237z" />
    <glyph glyph-name="Z" unicode="Z" horiz-adv-x="1094" 
d="M-40 0l32 166l854 1092h-601l43 204h899l-33 -167l-856 -1091h648l-42 -204h-944z" />
    <glyph glyph-name="bracketleft" unicode="[" horiz-adv-x="638" 
d="M-27 -324l380 1786h435l-38 -174h-226l-306 -1437h227l-38 -175h-434z" />
    <glyph glyph-name="backslash" unicode="\" horiz-adv-x="790" 
d="M440 0l-220 1462h206l223 -1462h-209z" />
    <glyph glyph-name="bracketright" unicode="]" horiz-adv-x="638" 
d="M-142 -324l37 175h225l306 1437h-227l38 174h434l-381 -1786h-432z" />
    <glyph glyph-name="asciicircum" unicode="^" horiz-adv-x="1147" 
d="M58 535l537 937h122l365 -937h-185l-264 689l-378 -689h-197z" />
    <glyph glyph-name="underscore" unicode="_" horiz-adv-x="812" 
d="M-186 -321l29 135h815l-30 -135h-814z" />
    <glyph glyph-name="grave" unicode="`" horiz-adv-x="608" 
d="M530 1241q-40 40 -85.5 95t-84.5 111.5t-62 100.5v21h245q14 -48 34.5 -100t45.5 -103.5t51 -99.5v-25h-144z" />
    <glyph glyph-name="a" unicode="a" horiz-adv-x="1188" 
d="M401 -20q-85 0 -154.5 41.5t-110.5 128t-41 220.5q0 116 24.5 226t70 206t110.5 169.5t147 115t177 41.5q72 0 126 -24.5t91 -65.5t60 -91h9l60 160h180l-235 -1107h-179l22 179h-8q-43 -55 -95.5 -100t-115.5 -72t-138 -27zM487 171q70 0 134 52.5t113.5 139.5t73.5 191
q12 50 16.5 95t4.5 90q0 87 -46 142t-126 55q-55 0 -104.5 -31t-89.5 -85.5t-69.5 -125.5t-45 -152.5t-15.5 -165.5q0 -101 40.5 -153t113.5 -52z" />
    <glyph glyph-name="b" unicode="b" horiz-adv-x="1201" 
d="M577 -20q-73 0 -128 24t-92 65t-60 91h-9l-62 -160h-178l330 1556h233l-71 -332q-11 -54 -26 -114t-29.5 -110t-23.5 -74h8q42 53 89 99t105.5 74t132.5 28q86 0 156 -41.5t111.5 -127.5t41.5 -221q0 -114 -23.5 -224t-68.5 -206t-109 -169.5t-146.5 -115.5t-180.5 -42z
M546 171q57 0 106 31.5t89 86.5t68 127t43 152.5t15 162.5q0 102 -39.5 153.5t-118.5 51.5q-48 0 -92.5 -24.5t-82.5 -67t-68.5 -98t-52.5 -118.5t-33.5 -128t-11.5 -125q0 -92 45.5 -148t132.5 -56z" />
    <glyph glyph-name="c" unicode="c" horiz-adv-x="959" 
d="M506 -20q-119 0 -212 44t-146 135t-53 232q0 119 25.5 228.5t74.5 202t120 161t162 107t201 38.5q86 0 161 -16.5t138 -45.5l-70 -185q-48 22 -102.5 38.5t-119.5 16.5q-81 0 -146 -43.5t-111 -119t-70.5 -170.5t-24.5 -199q0 -74 25 -126t72.5 -79.5t114.5 -27.5
q74 0 139 21.5t130 53.5v-194q-62 -33 -138 -52.5t-170 -19.5z" />
    <glyph glyph-name="d" unicode="d" horiz-adv-x="1200" 
d="M402 -20q-86 0 -155.5 41t-110.5 127.5t-41 222.5q0 114 23.5 223.5t68.5 206t110 170t147.5 115t179.5 41.5q72 0 123 -25t86 -66t59 -89h9q3 26 7.5 66.5t11.5 88t17 92.5l77 362h233l-330 -1556h-183l22 179h-7q-44 -56 -95.5 -101t-113.5 -71.5t-138 -26.5zM493 171
q47 0 90.5 24t81 66.5t68.5 98t53 118.5t34 128t12 126q0 93 -44.5 148.5t-132.5 55.5q-57 0 -106 -32t-89 -87t-68.5 -126.5t-43.5 -152.5t-15 -162q0 -101 40.5 -153t119.5 -52z" />
    <glyph glyph-name="e" unicode="e" horiz-adv-x="1081" 
d="M515 -20q-127 0 -221.5 48.5t-146 143t-51.5 231.5q0 136 39 265.5t115 233.5t185 165t248 61q170 0 255.5 -76.5t85.5 -202.5q0 -86 -39 -157t-118.5 -122.5t-201 -79.5t-285.5 -28h-45q-1 -15 -2 -30.5t-1 -30.5q0 -111 58 -174.5t169 -63.5q84 0 155 21t159 63v-185
q-81 -39 -164 -60.5t-194 -21.5zM364 632h34q122 0 212 23.5t139 70t49 113.5q0 52 -32.5 81.5t-96.5 29.5q-63 0 -124 -38.5t-109 -110t-72 -169.5z" />
    <glyph glyph-name="f" unicode="f" horiz-adv-x="702" 
d="M-74 -492q-43 0 -83.5 7t-68.5 16v192q30 -11 57.5 -16.5t57.5 -5.5q68 0 111.5 49.5t65.5 150.5l217 1028h-177l22 108l193 73l21 95q22 102 56.5 171.5t82 111.5t110 60.5t141.5 18.5q60 0 115.5 -12t96.5 -31l-62 -176q-29 12 -62 21t-73 9q-71 0 -113 -44t-62 -141
l-18 -86h227l-36 -178h-229l-224 -1060q-23 -106 -66.5 -187.5t-116.5 -127.5t-183 -46z" />
    <glyph glyph-name="g" unicode="g" horiz-adv-x="1086" 
d="M322 -492q-201 0 -313.5 74.5t-112.5 207.5q0 104 70.5 180t223.5 127q-38 21 -57 53t-19 74q0 69 47.5 119.5t143.5 95.5q-65 41 -100 104.5t-35 149.5q1 98 32.5 178t90.5 137q58 57 140 88t182 31q40 0 80 -5.5t79 -16.5h382l-29 -133l-196 -32q16 -28 23.5 -64
t7.5 -78q0 -96 -31.5 -173.5t-89.5 -132.5q-56 -54 -136.5 -82.5t-180.5 -29.5q-28 0 -51 2.5t-41 6.5q-57 -19 -85 -46.5t-28 -59.5q0 -26 16 -42q15 -14 42 -21.5t67 -12.5l128 -16q114 -14 186.5 -47t107 -88.5t34.5 -137.5q0 -108 -45.5 -188t-132.5 -132
q-73 -44 -174 -67t-226 -23zM334 -329q87 0 153.5 15t110.5 44q42 27 64 65t22 87q0 22 -6.5 38.5t-19.5 29.5q-24 24 -66 37t-105 20l-148 16q-77 -14 -129.5 -43t-79 -70.5t-26.5 -93.5q0 -70 58 -107.5t172 -37.5zM528 531q68 0 117 39.5t75.5 106t26.5 148.5
q0 38 -9.5 66t-28.5 46q-17 18 -42.5 27t-58.5 9q-51 0 -91.5 -22.5t-69 -62t-44 -92.5t-15.5 -114q0 -30 6.5 -54t19.5 -42q34 -55 114 -55z" />
    <glyph glyph-name="h" unicode="h" horiz-adv-x="1209" 
d="M48 0l330 1556h233l-73 -337q-8 -44 -21.5 -96t-28 -103t-27.5 -94h9q40 52 90.5 98t114 74.5t141.5 28.5q91 0 154 -35.5t96 -102t33 -162.5q0 -38 -6 -81.5t-16 -90.5l-139 -655h-234l142 672q9 39 13 70t4 56q0 68 -32 103t-99 35q-71 0 -140 -54.5t-124 -158
t-86 -250.5l-100 -473h-234z" />
    <glyph glyph-name="i" unicode="i" horiz-adv-x="563" 
d="M48 0l235 1107h234l-235 -1107h-234zM452 1273q-52 0 -87 25.5t-35 80.5q0 46 17.5 80t51 52.5t80.5 18.5q52 0 85 -24.5t33 -78.5q0 -70 -39 -112t-106 -42z" />
    <glyph glyph-name="j" unicode="j" horiz-adv-x="563" 
d="M-113 -492q-42 0 -82.5 7t-67.5 16v192q29 -11 57.5 -16.5t59.5 -5.5q42 0 75.5 20t58 61.5t38.5 104.5l258 1220h233l-266 -1251q-21 -101 -63.5 -179.5t-115.5 -123.5t-185 -45zM452 1273q-51 0 -86 25.5t-35 80.5q0 46 17.5 80t51 52.5t80.5 18.5q52 0 85 -24.5
t33 -78.5q0 -70 -39.5 -112t-106.5 -42z" />
    <glyph glyph-name="k" unicode="k" horiz-adv-x="1082" 
d="M47 0l330 1556h234l-142 -664q-14 -69 -29.5 -127.5t-28.5 -101t-20 -66.5h6l497 510h270l-486 -487l290 -620h-260l-210 471l-139 -101l-77 -370h-235z" />
    <glyph glyph-name="l" unicode="l" horiz-adv-x="563" 
d="M47 0l331 1556h233l-330 -1556h-234z" />
    <glyph glyph-name="m" unicode="m" horiz-adv-x="1819" 
d="M48 0l235 1107h183l-24 -209h10q39 59 90.5 111.5t117 85.5t147.5 33q116 0 177.5 -64t76.5 -175h8q41 64 95.5 118t123 87.5t149.5 33.5q134 0 203 -78t69 -218q0 -42 -5.5 -86t-16.5 -91l-138 -655h-234l143 672q8 39 12.5 70.5t4.5 59.5q0 65 -30.5 99.5t-92.5 34.5
q-52 0 -102.5 -31t-95.5 -90t-80 -142.5t-57 -188.5l-102 -484h-233l141 670q9 40 13 72t4 56q0 67 -28.5 102.5t-90.5 35.5q-52 0 -103 -31t-96 -91t-81 -145.5t-59 -195.5l-100 -473h-234z" />
    <glyph glyph-name="n" unicode="n" horiz-adv-x="1209" 
d="M44 0l236 1110h189l-24 -209h6q40 59 93 111.5t120.5 85.5t151.5 33q92 0 156 -36t97 -103t33 -160q0 -41 -6.5 -87.5t-16.5 -90.5l-139 -654h-239l142 673q9 39 13.5 70t4.5 58q0 66 -32.5 99t-96.5 33q-70 0 -138 -54t-123 -157t-87 -249l-100 -473h-240z" />
    <glyph glyph-name="o" unicode="o" horiz-adv-x="1176" 
d="M512 -18q-126 0 -220 52t-145.5 147.5t-51.5 226.5q0 111 23.5 216t69.5 196t115 159.5t160 107t204 38.5q129 0 222 -52t143 -149t50 -232q0 -108 -22.5 -211t-67.5 -193.5t-113.5 -159t-160 -107.5t-206.5 -39zM529 174q56 0 104.5 25.5t87.5 73t66.5 113t42.5 145.5
t15 171q0 61 -18 113.5t-59.5 85t-110.5 32.5q-62 0 -113.5 -29.5t-91 -81.5t-66.5 -119.5t-41 -144t-14 -154.5q0 -111 50.5 -170.5t147.5 -59.5z" />
    <glyph glyph-name="p" unicode="p" horiz-adv-x="1201" 
d="M-56 -491l339 1598h183l-22 -191h8q41 55 92 103t114.5 78t139.5 30q85 0 154.5 -41.5t111 -128t41.5 -222.5q0 -114 -23.5 -223.5t-68.5 -205.5t-109.5 -169.5t-146.5 -115t-180 -41.5q-72 0 -123.5 24.5t-86.5 65.5t-59 90h-9q-5 -59 -14 -123t-22 -122l-86 -406h-233z
M546 171q57 0 106 31.5t89 86.5t68 127t43 152.5t15 162.5q0 102 -39.5 153.5t-118.5 51.5q-48 0 -92 -24.5t-82 -66.5t-69 -97.5t-53 -118.5t-33.5 -128t-11.5 -126q0 -92 45.5 -148t132.5 -56z" />
    <glyph glyph-name="q" unicode="q" horiz-adv-x="1200" 
d="M580 -491l86 401q7 32 19.5 80.5t27 100t25.5 91.5h-8q-41 -54 -90.5 -100t-109.5 -74t-135 -28q-82 0 -150.5 41.5t-109 127.5t-40.5 221q0 114 23.5 223.5t68.5 206t110 170.5t147.5 116t180.5 42q72 0 124 -24t90 -65t64 -92h9l62 160h178l-339 -1598h-233zM494 171
q48 0 91 24.5t80.5 67.5t68 98.5t52.5 118.5t33.5 127.5t11.5 124.5q0 89 -44 146.5t-131 57.5q-57 0 -106 -32t-89 -87t-69 -126.5t-44 -152.5t-15 -162q0 -101 41 -153t120 -52z" />
    <glyph glyph-name="r" unicode="r" horiz-adv-x="836" 
d="M48 0l235 1107h183l-24 -209h11q43 64 93.5 116t112.5 83t138 31q27 0 56.5 -3.5t51.5 -9.5l-51 -220q-22 6 -48 10t-55 4q-66 0 -124 -31t-105 -86t-81 -128.5t-53 -159.5l-106 -504h-234z" />
    <glyph glyph-name="s" unicode="s" horiz-adv-x="926" 
d="M339 -20q-104 0 -181.5 17.5t-139.5 50.5v201q64 -38 144.5 -63.5t165.5 -25.5q66 0 115 18t76.5 51.5t27.5 81.5q0 35 -16 62t-55 55t-108 67q-73 41 -123.5 83.5t-77 94.5t-26.5 122q0 105 48.5 179.5t138 114t211.5 39.5q98 0 185 -22.5t161 -62.5l-77 -174
q-55 31 -122 53.5t-144 22.5q-71 0 -118.5 -33t-47.5 -94q0 -32 15.5 -57.5t52.5 -51.5t101 -60q69 -38 123 -80t85 -96.5t31 -131.5q0 -117 -54.5 -197.5t-154.5 -122t-236 -41.5z" />
    <glyph glyph-name="t" unicode="t" horiz-adv-x="758" 
d="M390 -20q-121 0 -196.5 54.5t-75.5 191.5q0 27 3.5 59.5t10.5 67.5l122 576h-160l22 112l189 77l126 234h147l-52 -245h282l-38 -178h-281l-123 -577q-5 -21 -8.5 -44.5t-3.5 -42.5q0 -45 25 -70t76 -25q39 0 75 8t79 23v-177q-37 -17 -96 -30.5t-123 -13.5z" />
    <glyph glyph-name="u" unicode="u" horiz-adv-x="1209" 
d="M391 -20q-89 0 -151.5 35t-95 101.5t-32.5 159.5q0 41 6.5 90.5t16.5 102.5l136 638h234l-143 -672q-7 -39 -11.5 -70.5t-4.5 -57.5q0 -67 31.5 -101.5t98.5 -34.5q72 0 140.5 54.5t124.5 158.5t87 251l100 472h232l-234 -1107h-184l24 210h-10q-40 -59 -93 -111.5
t-120 -85.5t-152 -33z" />
    <glyph glyph-name="v" unicode="v" horiz-adv-x="996" 
d="M235 0l-135 1107h232l56 -608q4 -39 7 -93t5.5 -105.5t2.5 -84.5h8q17 41 39.5 93.5t45.5 103t41 85.5l317 609h251l-601 -1107h-269z" />
    <glyph glyph-name="w" unicode="w" horiz-adv-x="1540" 
d="M170 0l-49 1107h222l11 -550q2 -95 0 -179t-8 -160h8q15 46 37 105t44.5 113t36.5 85l266 586h253l20 -571q1 -73 1.5 -156t-4.5 -162h9q16 48 38 110.5t47.5 128t49.5 121.5l236 529h242l-520 -1107h-264l-21 568q-2 47 -1.5 102t2 113t2.5 113h-10
q-17 -49 -36.5 -100.5t-40.5 -103.5t-45 -104l-266 -588h-260z" />
    <glyph glyph-name="x" unicode="x" horiz-adv-x="1035" 
d="M-87 0l478 569l-232 538h245l145 -374l289 374h274l-463 -550l249 -557h-248l-158 389l-308 -389h-271z" />
    <glyph glyph-name="y" unicode="y" horiz-adv-x="1003" 
d="M-26 -492q-51 0 -83.5 6t-59.5 14v187q27 -6 57 -10.5t66 -4.5q89 0 149.5 53.5t111.5 147.5l51 93l-166 1113h232l66 -540q7 -56 11.5 -120t6.5 -123.5t2 -100.5h7q14 34 35 86t47 111t52 110l294 577h253l-691 -1282q-57 -106 -122.5 -177t-143.5 -105.5t-175 -34.5z
" />
    <glyph glyph-name="z" unicode="z" horiz-adv-x="921" 
d="M-39 0l29 147l637 781h-440l38 179h708l-35 -166l-626 -761h487l-37 -180h-761z" />
    <glyph glyph-name="braceleft" unicode="{" horiz-adv-x="720" 
d="M457 -324q-164 0 -240.5 62t-76.5 174q0 33 5 65t12 65l45 206q6 28 10.5 52.5t4.5 45.5q0 70 -52.5 105.5t-154.5 35.5l38 183q120 0 190.5 43t92.5 145l65 305q23 105 67.5 171t121.5 97t198 31h59l-39 -181q-85 -1 -135 -31t-71 -123l-68 -310q-24 -108 -88 -169.5
t-177 -78.5v-6q80 -23 119 -78.5t39 -133.5q0 -26 -4.5 -56.5t-11.5 -62.5l-42 -201q-5 -20 -8 -38.5t-3 -33.5q0 -59 38 -79.5t105 -20.5v-183h-39z" />
    <glyph glyph-name="bar" unicode="|" horiz-adv-x="1127" 
d="M496 -479v2032h178v-2032h-178z" />
    <glyph glyph-name="braceright" unicode="}" horiz-adv-x="720" 
d="M-89 -324v183q59 0 103.5 12.5t73.5 46t42 95.5l69 309q24 107 88 169t177 78v7q-80 24 -118.5 78.5t-38.5 132.5q0 26 4.5 56.5t11.5 62.5l43 202q5 20 8 38.5t3 33.5q0 58 -42.5 79.5t-122.5 21.5l34 181h23q111 0 181.5 -27.5t104 -80t33.5 -127.5q0 -33 -5 -64.5
t-12 -64.5l-46 -208q-5 -27 -10 -51t-5 -46q0 -70 53 -105t155 -35l-38 -184q-80 0 -138 -19t-94 -60t-51 -109l-65 -305q-23 -108 -69 -174t-124 -96t-198 -30h-30z" />
    <glyph glyph-name="asciitilde" unicode="~" horiz-adv-x="1171" 
d="M582 637q-73 32 -124 44.5t-97 12.5q-58 0 -121 -35t-113 -86v190q50 54 112.5 81t138.5 27q60 0 119.5 -12.5t151.5 -51.5q74 -32 125 -44t96 -12q59 0 121.5 34.5t112.5 85.5v-189q-49 -53 -111.5 -81t-138.5 -28q-60 0 -119.5 12.5t-152.5 51.5z" />
    <glyph glyph-name="uni00A0" unicode="&#xa0;" horiz-adv-x="532" 
 />
    <glyph glyph-name="exclamdown" unicode="&#xa1;" horiz-adv-x="555" 
d="M-46 -372l263 1017h177l-170 -1017h-270zM346 817q-57 0 -90.5 32t-33.5 91q0 74 44.5 125.5t126.5 51.5q65 0 95.5 -35t30.5 -87q0 -43 -17.5 -84t-55.5 -67.5t-100 -26.5z" />
    <glyph glyph-name="cent" unicode="&#xa2;" horiz-adv-x="1128" 
d="M421 -20l46 212q-123 32 -199 129.5t-76 265.5q0 111 22 213.5t64.5 191t104.5 157.5t141.5 113t175.5 58l33 163h154l-36 -163q63 -6 118.5 -20.5t104.5 -36.5l-70 -185q-48 22 -102 38t-120 16q-81 0 -146 -43.5t-111 -118.5t-71 -170.5t-25 -199.5q0 -111 56.5 -172
t156.5 -61q73 0 138 21.5t130 53.5v-194q-61 -31 -132 -50t-160 -22l-42 -196h-155z" />
    <glyph glyph-name="sterling" unicode="&#xa3;" horiz-adv-x="1128" 
d="M-17 0l38 194q61 14 111.5 47t87.5 89t55 141l34 162h-196l36 173h196l61 293q28 131 89.5 216t153.5 126.5t211 41.5q107 0 196 -25.5t154 -59.5l-89 -182q-54 28 -118.5 50.5t-135.5 22.5q-83 0 -143.5 -46t-85.5 -164l-58 -273h333l-36 -173h-333l-33 -151
q-23 -114 -76.5 -178t-124.5 -98h690l-43 -206h-974z" />
    <glyph glyph-name="currency" unicode="&#xa4;" horiz-adv-x="1130" 
d="M933 268l-130 128q-44 -28 -97 -44.5t-111 -16.5t-112 16t-98 46l-128 -127l-116 117l129 128q-30 46 -46.5 98t-16.5 110q0 57 16.5 110t46.5 99l-131 129l118 119l129 -129q45 29 99 45.5t110 16.5q58 0 110 -16.5t98 -46.5l130 130l120 -116l-131 -130q29 -45 46 -99
t17 -112q0 -59 -16.5 -111.5t-46.5 -98.5l128 -128zM595 502q63 0 114 29.5t81.5 80t30.5 111.5q0 63 -30.5 113.5t-81.5 80.5t-114 30q-61 0 -111.5 -30t-80 -80.5t-29.5 -113.5q0 -61 29.5 -111.5t80 -80t111.5 -29.5z" />
    <glyph glyph-name="yen" unicode="&#xa5;" horiz-adv-x="1128" 
d="M328 0l52 246h-273l33 152h272l32 152h-274l34 153h215l-202 759h230l149 -664l433 664h247l-523 -759h220l-33 -153h-275l-31 -152h275l-32 -152h-273l-54 -246h-222z" />
    <glyph glyph-name="brokenbar" unicode="&#xa6;" horiz-adv-x="1127" 
d="M496 758v795h178v-795h-178zM496 -479v796h178v-796h-178z" />
    <glyph glyph-name="section" unicode="&#xa7;" horiz-adv-x="997" 
d="M356 -14q-106 0 -185.5 20t-132.5 49v184q62 -36 147 -64.5t175 -28.5q116 0 174.5 41t58.5 112q0 31 -18 56.5t-57.5 51.5t-106.5 57q-75 36 -131 78t-86.5 96.5t-30.5 125.5q0 73 29.5 129t80 98.5t111.5 74.5q-46 33 -78 83.5t-32 114.5q0 93 51 160.5t142.5 105
t214.5 37.5q97 0 179.5 -21.5t152.5 -57.5l-67 -156q-61 29 -129.5 50.5t-145.5 21.5q-48 0 -90.5 -13t-68.5 -41.5t-26 -75.5q0 -49 43.5 -83.5t140.5 -77.5q76 -33 131.5 -74.5t85.5 -94.5t30 -124q0 -72 -29 -130t-77 -102.5t-106 -76.5q43 -33 72.5 -80.5t29.5 -111.5
q0 -103 -54.5 -178t-156 -115t-241.5 -40zM579 586q53 31 96 83t43 122q0 41 -22 73.5t-68 62t-116 57.5q-39 -14 -74 -41.5t-57 -65.5t-22 -85q0 -42 21 -75t69.5 -63.5t129.5 -67.5z" />
    <glyph glyph-name="dieresis" unicode="&#xa8;" horiz-adv-x="1138" 
d="M918 1284q-45 0 -74.5 23t-29.5 73q0 60 33 97.5t94 37.5q45 0 73 -22t28 -70q0 -64 -33.5 -101.5t-90.5 -37.5zM543 1284q-46 0 -75 23t-29 73q0 60 32.5 97.5t93.5 37.5q31 0 53.5 -9.5t35.5 -30t13 -52.5q0 -64 -33 -101.5t-91 -37.5z" />
    <glyph glyph-name="copyright" unicode="&#xa9;" horiz-adv-x="1704" 
d="M852 -20q-163 0 -300.5 56t-239 157t-157 238.5t-55.5 299.5q0 160 56.5 297t158.5 239t239 159t298 57q157 0 293.5 -56t239.5 -157.5t161 -238.5t58 -300q0 -162 -55.5 -299.5t-157 -238.5t-239 -157t-300.5 -56zM884 268q-206 0 -308.5 127t-102.5 336q0 135 48.5 239
t142 163.5t228.5 59.5q64 0 129.5 -16t122.5 -45l-58 -127q-50 26 -98.5 40t-93.5 14q-124 0 -192.5 -87.5t-68.5 -240.5q0 -158 61 -243t197 -85q49 0 107 13t109 34v-132q-49 -22 -100.5 -36t-122.5 -14zM852 97q130 0 243 46.5t199 132t134.5 201.5t48.5 254
q0 131 -46.5 246t-131 203t-198.5 137.5t-249 49.5t-249.5 -47t-199.5 -132.5t-131.5 -201.5t-46.5 -255q0 -135 46 -250.5t130 -201.5t199 -134t252 -48z" />
    <glyph glyph-name="ordfeminine" unicode="&#xaa;" horiz-adv-x="731" 
d="M360 768q-53 0 -98.5 25.5t-73 81t-27.5 141.5q0 77 21 158t62.5 150t105 111t149.5 42q65 0 104 -28.5t62 -75.5h8l37 91h121l-149 -684h-120l13 105h-8q-38 -51 -87 -84t-120 -33zM414 895q41 0 73.5 23t57 60.5t41 82t24.5 88.5t8 80q0 54 -24.5 87.5t-77.5 33.5
q-44 0 -80 -29t-62 -77t-40 -106.5t-14 -118.5q0 -62 24 -93t70 -31z" />
    <glyph glyph-name="guillemotleft" unicode="&#xab;" horiz-adv-x="1052" 
d="M292 104l-215 449v23l396 423l137 -119l-290 -333l152 -366zM727 104l-209 431v23l387 436l139 -114l-284 -349l147 -350z" />
    <glyph glyph-name="logicalnot" unicode="&#xac;" horiz-adv-x="1171" 
d="M1102 811v-555h-177v377h-798v178h975z" />
    <glyph glyph-name="uni00AD" unicode="&#xad;" horiz-adv-x="649" 
d="M49 448l43 202h503l-43 -202h-503z" />
    <glyph glyph-name="registered" unicode="&#xae;" horiz-adv-x="1704" 
d="M568 284v899h267q165 0 243 -68.5t78 -200.5q0 -97 -49 -153t-112 -81l237 -396h-175l-201 350h-132v-350h-156zM724 761h106q82 0 125.5 41t43.5 108q0 75 -40 108t-131 33h-104v-290zM852 -20q-163 0 -300.5 56t-239 157t-157 238.5t-55.5 299.5q0 160 56.5 297
t158.5 239t239 159t298 57q157 0 293.5 -56t239.5 -157.5t161 -238.5t58 -300q0 -162 -55.5 -299.5t-157 -238.5t-239 -157t-300.5 -56zM852 97q130 0 243 46.5t199 132t134.5 201.5t48.5 254q0 131 -46.5 246t-131 203t-198.5 137.5t-249 49.5t-249.5 -47t-199.5 -132.5
t-131.5 -201.5t-46.5 -255q0 -135 46 -250.5t130 -201.5t199 -134t252 -48z" />
    <glyph glyph-name="overscore" unicode="&#xaf;" horiz-adv-x="924" 
d="M193 1556l38 165h922l-39 -165h-921z" />
    <glyph glyph-name="degree" unicode="&#xb0;" horiz-adv-x="877" 
d="M438 826q-100 0 -176.5 41.5t-119.5 115.5t-43 171q0 96 42.5 170.5t119 116.5t177.5 42t177 -42t119.5 -116t43.5 -171t-43.5 -171t-119.5 -115.5t-177 -41.5zM439 978q82 0 129 48t47 128q0 83 -48 131t-128 48q-82 0 -129.5 -48t-47.5 -131q0 -80 47 -128t130 -48z
" />
    <glyph glyph-name="plusminus" unicode="&#xb1;" horiz-adv-x="1171" 
d="M127 0v177h978v-177h-978zM704 844h400v-178h-400v-404h-178v404h-399v178h399v408h178v-408z" />
    <glyph glyph-name="uni00B2" unicode="&#xb2;" horiz-adv-x="745" 
d="M128 851l29 136l270 223q75 63 124.5 110t74 88.5t24.5 88.5q0 46 -28.5 72t-75.5 26t-94.5 -20t-99.5 -61l-79 124q68 54 144 81.5t170 27.5q125 0 188 -64t63 -151q0 -77 -28.5 -136.5t-88.5 -117t-153 -130.5l-173 -138h373l-33 -159h-607z" />
    <glyph glyph-name="uni00B3" unicode="&#xb3;" horiz-adv-x="745" 
d="M405 837q-71 0 -136.5 14.5t-114.5 39.5v159q57 -32 119.5 -51.5t127.5 -19.5q89 0 141 38t52 108q0 52 -35.5 81.5t-110.5 29.5h-111l30 133h92q59 0 104 15.5t69.5 45.5t24.5 73q0 50 -30 75.5t-85 24.5q-51 0 -98.5 -18t-93.5 -49l-68 121q60 42 132.5 66t160.5 24
q93 0 150.5 -28.5t85 -75.5t27.5 -104q0 -99 -59.5 -153t-153.5 -79v-8q76 -17 113 -65t37 -115q0 -90 -47.5 -153t-131 -96t-191.5 -33z" />
    <glyph glyph-name="acute" unicode="&#xb4;" horiz-adv-x="594" 
d="M234 1241v25q35 39 76.5 92t81.5 108.5t70 102.5h262v-18q-22 -28 -61.5 -69t-88 -86t-96.5 -85.5t-88 -69.5h-156z" />
    <glyph glyph-name="uni00B5" unicode="&#xb5;" horiz-adv-x="1220" 
d="M-56 -491l338 1598h234l-140 -668q-9 -40 -13.5 -73t-4.5 -57q0 -65 34.5 -101.5t97.5 -36.5q73 0 140.5 54t122.5 157t86 249l102 476h232l-236 -1107h-180l22 194h-10q-38 -58 -85 -107t-105 -78t-129 -29q-56 0 -96.5 22.5t-63.5 62.5h-8q-5 -31 -11.5 -74.5
t-13.5 -87.5t-14 -77l-66 -317h-233z" />
    <glyph glyph-name="paragraph" unicode="&#xb6;" horiz-adv-x="1341" 
d="M736 -260v828q-31 -9 -66.5 -13.5t-79.5 -4.5q-95 0 -171.5 26.5t-131 85t-83.5 153.5t-29 233q0 144 32 242t91 156.5t141 84t182 25.5h579v-1816h-137v1643h-191v-1643h-136z" />
    <glyph glyph-name="periodcentered" unicode="&#xb7;" horiz-adv-x="549" 
d="M278 568q-66 0 -96.5 35t-30.5 86q0 69 40.5 124t134.5 55q55 0 88.5 -32t33.5 -91q0 -72 -44.5 -124.5t-125.5 -52.5z" />
    <glyph glyph-name="cedilla" unicode="&#xb8;" horiz-adv-x="419" 
d="M-67 -492q-38 0 -70.5 6t-52.5 11v134q21 -5 48.5 -10t52.5 -5q45 0 75 11t46 33t16 54q0 39 -35 61.5t-107 30.5l98 166h146l-50 -95q55 -16 96 -54.5t41 -112.5q0 -65 -33.5 -117t-101 -82.5t-169.5 -30.5z" />
    <glyph glyph-name="uni00B9" unicode="&#xb9;" horiz-adv-x="745" 
d="M375 850l97 459q13 58 29 117.5t28 98.5q-19 -15 -43 -34t-45 -34l-119 -74l-78 128l346 215h163l-187 -876h-191z" />
    <glyph glyph-name="ordmasculine" unicode="&#xba;" horiz-adv-x="726" 
d="M433 768q-120 0 -189.5 71t-69.5 205q0 85 23 163t68.5 139t113 96.5t155.5 35.5q135 0 195 -77.5t60 -195.5q0 -73 -19 -150t-60.5 -142t-110 -105t-166.5 -40zM447 900q45 0 78.5 27t56.5 72t34 99.5t11 109.5q0 70 -27.5 103t-77.5 33q-46 0 -80.5 -26.5t-58 -71
t-35.5 -98.5t-12 -108q0 -71 29 -105.5t82 -34.5z" />
    <glyph glyph-name="guillemotright" unicode="&#xbb;" horiz-adv-x="1052" 
d="M580 104l-137 119l291 332l-153 368l181 76l214 -450v-24zM148 110l-140 113l285 347l-148 353l181 76l209 -432v-24z" />
    <glyph glyph-name="onequarter" unicode="&#xbc;" horiz-adv-x="1597" 
d="M198 0l1086 1462h194l-1085 -1462h-195zM323 585l97 459q13 58 29 117.5t28 98.5q-19 -15 -43 -34t-45 -34l-119 -74l-78 128l346 215h163l-187 -876h-191zM1151 2l38 177h-371l27 138l480 568h198l-121 -565h122l-28 -141h-124l-38 -177h-183zM1016 320h203l42 179
q10 48 19.5 86.5t23.5 87.5q-16 -26 -47 -66t-53 -65z" />
    <glyph glyph-name="onehalf" unicode="&#xbd;" horiz-adv-x="1727" 
d="M197 0l1086 1462h194l-1085 -1462h-195zM323 585l97 459q13 58 29 117.5t28 98.5q-19 -15 -43 -34t-45 -34l-119 -74l-78 128l346 215h163l-187 -876h-191zM932 0l29 136l270 223q75 63 124.5 110t74 88.5t24.5 88.5q0 46 -28.5 72t-75.5 26t-94.5 -20t-99.5 -61l-79 124
q68 54 144 81.5t170 27.5q125 0 188 -64t63 -151q0 -77 -28.5 -136.5t-88.5 -117t-153 -130.5l-173 -138h373l-33 -159h-607z" />
    <glyph glyph-name="threequarters" unicode="&#xbe;" horiz-adv-x="1684" 
d="M352 572q-71 0 -136.5 14.5t-114.5 39.5v159q57 -32 119.5 -51.5t127.5 -19.5q89 0 141 38t52 108q0 52 -35.5 81.5t-110.5 29.5h-111l30 133h92q59 0 104 15.5t69.5 45.5t24.5 73q0 50 -30 75.5t-85 24.5q-51 0 -98.5 -18t-93.5 -49l-68 121q60 42 132.5 66t160.5 24
q93 0 150.5 -28.5t85 -75.5t27.5 -104q0 -99 -59.5 -153t-153.5 -79v-8q76 -17 113 -65t37 -115q0 -90 -47.5 -153t-131 -96t-191.5 -33zM289 0l1086 1462h194l-1085 -1462h-195zM1238 0l38 177h-371l27 138l480 568h198l-121 -565h122l-28 -141h-124l-38 -177h-183z
M1103 318h203l42 179q10 48 19.5 86.5t23.5 87.5q-16 -26 -47 -66t-53 -65z" />
    <glyph glyph-name="questiondown" unicode="&#xbf;" horiz-adv-x="908" 
d="M656 645q-16 -92 -45 -161t-78.5 -125.5t-128.5 -114.5q-66 -47 -116 -88.5t-77.5 -87t-27.5 -107.5q0 -74 42 -116t125 -42q75 0 148.5 26.5t151.5 64.5l76 -174q-87 -47 -191.5 -79.5t-215.5 -32.5q-170 0 -269 85t-99 241q0 99 37 172.5t104 136t157 125.5
q70 49 110.5 86.5t63 81t37.5 109.5h196zM630 1118q67 0 97 -35t30 -86q0 -68 -40.5 -123.5t-134.5 -55.5q-55 0 -88.5 32t-33.5 91q0 72 44.5 124.5t125.5 52.5z" />
    <glyph glyph-name="Agrave" unicode="&#xc0;" horiz-adv-x="1217" 
d="M-119 0l784 1462h275l166 -1462h-232l-41 407h-489l-210 -407h-253zM447 613h370l-33 359q-5 67 -11 141.5t-6 141.5h-6q-25 -65 -58 -134.5t-71 -142.5zM829 1597q-40 40 -85.5 95t-84.5 111.5t-62 100.5v21h245q14 -48 34.5 -100t45.5 -103.5t51 -99.5v-25h-144z" />
    <glyph glyph-name="Aacute" unicode="&#xc1;" horiz-adv-x="1217" 
d="M-119 0l784 1462h275l166 -1462h-232l-41 407h-489l-210 -407h-253zM447 613h370l-33 359q-5 67 -11 141.5t-6 141.5h-6q-25 -65 -58 -134.5t-71 -142.5zM698 1597v25q35 39 76.5 92t81.5 108.5t70 102.5h262v-18q-22 -28 -61.5 -69t-88 -86t-96.5 -85.5t-88 -69.5h-156z
" />
    <glyph glyph-name="Acircumflex" unicode="&#xc2;" horiz-adv-x="1217" 
d="M-119 0l784 1462h275l166 -1462h-232l-41 407h-489l-210 -407h-253zM447 613h370l-33 359q-5 67 -11 141.5t-6 141.5h-6q-25 -65 -58 -134.5t-71 -142.5zM457 1597l1 25q38 36 94 89.5t110 111t86 102.5h249q21 -50 51 -105t63 -106t59 -92v-25h-151q-24 23 -52 52.5
t-56 63t-53 65.5q-60 -52 -119.5 -97.5t-116.5 -83.5h-165z" />
    <glyph glyph-name="Atilde" unicode="&#xc3;" horiz-adv-x="1217" 
d="M-119 0l784 1462h275l166 -1462h-232l-41 407h-489l-210 -407h-253zM447 613h370l-33 359q-5 67 -11 141.5t-6 141.5h-6q-25 -65 -58 -134.5t-71 -142.5zM461 1598q19 95 55 157.5t86.5 93.5t114.5 31q47 0 86.5 -16.5t73 -38.5t63.5 -38.5t59 -16.5q39 0 64 26t49 86
h137q-22 -96 -59 -159t-87.5 -93.5t-114.5 -30.5q-45 0 -82.5 17t-70.5 39t-64.5 38.5t-64.5 16.5q-37 0 -62.5 -28t-44.5 -84h-138z" />
    <glyph glyph-name="Adieresis" unicode="&#xc4;" horiz-adv-x="1217" 
d="M-119 0l784 1462h275l166 -1462h-232l-41 407h-489l-210 -407h-253zM447 613h370l-33 359q-5 67 -11 141.5t-6 141.5h-6q-25 -65 -58 -134.5t-71 -142.5zM1031 1640q-45 0 -74.5 23t-29.5 73q0 60 33 97.5t94 37.5q45 0 73 -22t28 -70q0 -64 -33.5 -101.5t-90.5 -37.5z
M656 1640q-46 0 -75 23t-29 73q0 60 32.5 97.5t93.5 37.5q31 0 53.5 -9.5t35.5 -30t13 -52.5q0 -64 -33 -101.5t-91 -37.5z" />
    <glyph glyph-name="Aring" unicode="&#xc5;" horiz-adv-x="1217" 
d="M-119 0l784 1462h275l166 -1462h-232l-41 407h-489l-210 -407h-253zM447 613h370l-33 359q-5 67 -11 141.5t-6 141.5h-6q-25 -65 -58 -134.5t-71 -142.5zM847 1585q-103 0 -168 60t-65 166q0 105 66.5 164.5t166.5 59.5q102 0 170 -59.5t68 -162.5q0 -108 -68 -168
t-170 -60zM847 1703q48 0 78 29t30 79q0 49 -30.5 78t-77.5 29q-45 0 -75.5 -29t-30.5 -78q0 -50 27.5 -79t78.5 -29z" />
    <glyph glyph-name="AE" unicode="&#xc6;" horiz-adv-x="1756" 
d="M-120 0l927 1462h1024l-42 -202h-544l-85 -397h509l-42 -201h-508l-97 -459h543l-43 -203h-781l86 407h-431l-255 -407h-261zM526 612h344l137 648h-82z" />
    <glyph glyph-name="Ccedilla" unicode="&#xc7;" horiz-adv-x="1229" 
d="M664 -20q-170 0 -287.5 69.5t-178.5 196.5t-61 301q0 132 30.5 266t92.5 254.5t156 214t220.5 148t286.5 54.5q122 0 213.5 -23t178.5 -70l-93 -195q-64 36 -136 60t-163 24q-111 0 -198.5 -42t-152 -115t-106.5 -166.5t-63 -196t-21 -203.5q0 -179 83 -275.5t244 -96.5
q85 0 168.5 19t164.5 49v-204q-70 -26 -162.5 -47.5t-215.5 -21.5zM510 -492q-38 0 -70.5 6t-52.5 11v134q21 -5 48.5 -10t52.5 -5q45 0 75 11t46 33t16 54q0 39 -35 61.5t-107 30.5l98 166h146l-50 -95q55 -16 96 -54.5t41 -112.5q0 -65 -33.5 -117t-101 -82.5
t-169.5 -30.5z" />
    <glyph glyph-name="Egrave" unicode="&#xc8;" horiz-adv-x="1084" 
d="M70 0l309 1462h779l-43 -202h-542l-84 -397h507l-42 -201h-507l-98 -459h542l-43 -203h-778zM782 1597q-40 40 -85.5 95t-84.5 111.5t-62 100.5v21h245q14 -48 34.5 -100t45.5 -103.5t51 -99.5v-25h-144z" />
    <glyph glyph-name="Eacute" unicode="&#xc9;" horiz-adv-x="1084" 
d="M70 0l309 1462h779l-43 -202h-542l-84 -397h507l-42 -201h-507l-98 -459h542l-43 -203h-778zM651 1597v25q35 39 76.5 92t81.5 108.5t70 102.5h262v-18q-22 -28 -61.5 -69t-88 -86t-96.5 -85.5t-88 -69.5h-156z" />
    <glyph glyph-name="Ecircumflex" unicode="&#xca;" horiz-adv-x="1084" 
d="M70 0l309 1462h779l-43 -202h-542l-84 -397h507l-42 -201h-507l-98 -459h542l-43 -203h-778zM412 1597l1 25q38 36 94 89.5t110 111t86 102.5h249q21 -50 51 -105t63 -106t59 -92v-25h-151q-24 23 -52 52.5t-56 63t-53 65.5q-60 -52 -119.5 -97.5t-116.5 -83.5h-165z" />
    <glyph glyph-name="Edieresis" unicode="&#xcb;" horiz-adv-x="1084" 
d="M70 0l309 1462h779l-43 -202h-542l-84 -397h507l-42 -201h-507l-98 -459h542l-43 -203h-778zM987 1640q-45 0 -74.5 23t-29.5 73q0 60 33 97.5t94 37.5q45 0 73 -22t28 -70q0 -64 -33.5 -101.5t-90.5 -37.5zM612 1640q-46 0 -75 23t-29 73q0 60 32.5 97.5t93.5 37.5
q31 0 53.5 -9.5t35.5 -30t13 -52.5q0 -64 -33 -101.5t-91 -37.5z" />
    <glyph glyph-name="Igrave" unicode="&#xcc;" horiz-adv-x="605" 
d="M69 0l311 1462h236l-312 -1462h-235zM512 1597q-40 40 -85.5 95t-84.5 111.5t-62 100.5v21h245q14 -48 34.5 -100t45.5 -103.5t51 -99.5v-25h-144z" />
    <glyph glyph-name="Iacute" unicode="&#xcd;" horiz-adv-x="605" 
d="M69 0l311 1462h236l-312 -1462h-235zM383 1597v25q35 39 76.5 92t81.5 108.5t70 102.5h262v-18q-22 -28 -61.5 -69t-88 -86t-96.5 -85.5t-88 -69.5h-156z" />
    <glyph glyph-name="Icircumflex" unicode="&#xce;" horiz-adv-x="605" 
d="M69 0l311 1462h236l-312 -1462h-235zM164 1597l1 25q38 36 94 89.5t110 111t86 102.5h249q21 -50 51 -105t63 -106t59 -92v-25h-151q-24 23 -52 52.5t-56 63t-53 65.5q-60 -52 -119.5 -97.5t-116.5 -83.5h-165z" />
    <glyph glyph-name="Idieresis" unicode="&#xcf;" horiz-adv-x="605" 
d="M69 0l311 1462h236l-312 -1462h-235zM738 1640q-45 0 -74.5 23t-29.5 73q0 60 33 97.5t94 37.5q45 0 73 -22t28 -70q0 -64 -33.5 -101.5t-90.5 -37.5zM363 1640q-46 0 -75 23t-29 73q0 60 32.5 97.5t93.5 37.5q31 0 53.5 -9.5t35.5 -30t13 -52.5q0 -64 -33 -101.5
t-91 -37.5z" />
    <glyph glyph-name="Eth" unicode="&#xd0;" horiz-adv-x="1377" 
d="M70 0l130 624h-146l43 200h145l137 638h368q268 0 417 -142.5t149 -425.5q0 -158 -35.5 -295t-104.5 -247.5t-171 -189t-235 -120.5t-295 -42h-402zM349 201h135q116 0 209.5 35t163.5 98.5t117 149.5t70.5 188.5t23.5 214.5q0 195 -93.5 285.5t-252.5 90.5h-148
l-93 -439h284l-44 -200h-284z" />
    <glyph glyph-name="Ntilde" unicode="&#xd1;" horiz-adv-x="1494" 
d="M69 0l309 1462h267l402 -1150h6q7 46 18 113.5t25 140.5t27 135l162 761h217l-309 -1462h-260l-411 1167h-7q-3 -23 -10 -69.5t-16.5 -106.5t-20.5 -122t-23 -115l-159 -754h-217zM611 1598q19 95 55 157.5t86.5 93.5t114.5 31q47 0 86.5 -16.5t73 -38.5t63.5 -38.5
t59 -16.5q39 0 64 26t49 86h137q-22 -96 -59 -159t-87.5 -93.5t-114.5 -30.5q-45 0 -82.5 17t-70.5 39t-64.5 38.5t-64.5 16.5q-37 0 -62.5 -28t-44.5 -84h-138z" />
    <glyph glyph-name="Ograve" unicode="&#xd2;" horiz-adv-x="1486" 
d="M678 -20q-177 0 -297.5 69.5t-182 196.5t-61.5 297q0 120 21.5 235.5t63.5 220.5t105.5 194t147.5 154.5t188.5 101.5t228.5 36q256 0 392.5 -151t136.5 -410q0 -120 -19.5 -236.5t-60 -222t-101.5 -194t-143.5 -153.5t-187 -101.5t-231.5 -36.5zM692 185q73 0 137 26
t117.5 73.5t96 114.5t72 149t45.5 176.5t16 197.5q0 167 -78.5 263t-223.5 96q-75 0 -140.5 -26.5t-120.5 -76t-97.5 -117t-72.5 -149.5t-45.5 -174.5t-15.5 -192.5q0 -114 36.5 -195t106 -123t167.5 -42zM961 1597q-40 40 -85.5 95t-84.5 111.5t-62 100.5v21h245
q14 -48 34.5 -100t45.5 -103.5t51 -99.5v-25h-144z" />
    <glyph glyph-name="Oacute" unicode="&#xd3;" horiz-adv-x="1486" 
d="M678 -20q-177 0 -297.5 69.5t-182 196.5t-61.5 297q0 120 21.5 235.5t63.5 220.5t105.5 194t147.5 154.5t188.5 101.5t228.5 36q256 0 392.5 -151t136.5 -410q0 -120 -19.5 -236.5t-60 -222t-101.5 -194t-143.5 -153.5t-187 -101.5t-231.5 -36.5zM692 185q73 0 137 26
t117.5 73.5t96 114.5t72 149t45.5 176.5t16 197.5q0 167 -78.5 263t-223.5 96q-75 0 -140.5 -26.5t-120.5 -76t-97.5 -117t-72.5 -149.5t-45.5 -174.5t-15.5 -192.5q0 -114 36.5 -195t106 -123t167.5 -42zM829 1597v25q35 39 76.5 92t81.5 108.5t70 102.5h262v-18
q-22 -28 -61.5 -69t-88 -86t-96.5 -85.5t-88 -69.5h-156z" />
    <glyph glyph-name="Ocircumflex" unicode="&#xd4;" horiz-adv-x="1486" 
d="M678 -20q-177 0 -297.5 69.5t-182 196.5t-61.5 297q0 120 21.5 235.5t63.5 220.5t105.5 194t147.5 154.5t188.5 101.5t228.5 36q256 0 392.5 -151t136.5 -410q0 -120 -19.5 -236.5t-60 -222t-101.5 -194t-143.5 -153.5t-187 -101.5t-231.5 -36.5zM692 185q73 0 137 26
t117.5 73.5t96 114.5t72 149t45.5 176.5t16 197.5q0 167 -78.5 263t-223.5 96q-75 0 -140.5 -26.5t-120.5 -76t-97.5 -117t-72.5 -149.5t-45.5 -174.5t-15.5 -192.5q0 -114 36.5 -195t106 -123t167.5 -42zM588 1597l1 25q38 36 94 89.5t110 111t86 102.5h249q21 -50 51 -105
t63 -106t59 -92v-25h-151q-24 23 -52 52.5t-56 63t-53 65.5q-60 -52 -119.5 -97.5t-116.5 -83.5h-165z" />
    <glyph glyph-name="Otilde" unicode="&#xd5;" horiz-adv-x="1486" 
d="M678 -20q-177 0 -297.5 69.5t-182 196.5t-61.5 297q0 120 21.5 235.5t63.5 220.5t105.5 194t147.5 154.5t188.5 101.5t228.5 36q256 0 392.5 -151t136.5 -410q0 -120 -19.5 -236.5t-60 -222t-101.5 -194t-143.5 -153.5t-187 -101.5t-231.5 -36.5zM692 185q73 0 137 26
t117.5 73.5t96 114.5t72 149t45.5 176.5t16 197.5q0 167 -78.5 263t-223.5 96q-75 0 -140.5 -26.5t-120.5 -76t-97.5 -117t-72.5 -149.5t-45.5 -174.5t-15.5 -192.5q0 -114 36.5 -195t106 -123t167.5 -42zM593 1598q19 95 55 157.5t86.5 93.5t114.5 31q47 0 86.5 -16.5
t73 -38.5t63.5 -38.5t59 -16.5q39 0 64 26t49 86h137q-22 -96 -59 -159t-87.5 -93.5t-114.5 -30.5q-45 0 -82.5 17t-70.5 39t-64.5 38.5t-64.5 16.5q-37 0 -62.5 -28t-44.5 -84h-138z" />
    <glyph glyph-name="Odieresis" unicode="&#xd6;" horiz-adv-x="1486" 
d="M678 -20q-177 0 -297.5 69.5t-182 196.5t-61.5 297q0 120 21.5 235.5t63.5 220.5t105.5 194t147.5 154.5t188.5 101.5t228.5 36q256 0 392.5 -151t136.5 -410q0 -120 -19.5 -236.5t-60 -222t-101.5 -194t-143.5 -153.5t-187 -101.5t-231.5 -36.5zM692 185q73 0 137 26
t117.5 73.5t96 114.5t72 149t45.5 176.5t16 197.5q0 167 -78.5 263t-223.5 96q-75 0 -140.5 -26.5t-120.5 -76t-97.5 -117t-72.5 -149.5t-45.5 -174.5t-15.5 -192.5q0 -114 36.5 -195t106 -123t167.5 -42zM1164 1640q-45 0 -74.5 23t-29.5 73q0 60 33 97.5t94 37.5
q45 0 73 -22t28 -70q0 -64 -33.5 -101.5t-90.5 -37.5zM789 1640q-46 0 -75 23t-29 73q0 60 32.5 97.5t93.5 37.5q31 0 53.5 -9.5t35.5 -30t13 -52.5q0 -64 -33 -101.5t-91 -37.5z" />
    <glyph glyph-name="multiply" unicode="&#xd7;" horiz-adv-x="1171" 
d="M944 1176l124 -123l-329 -330l327 -328l-123 -125l-330 327l-325 -326l-124 125l325 327l-327 327l125 126l327 -327z" />
    <glyph glyph-name="Oslash" unicode="&#xd8;" horiz-adv-x="1486" 
d="M236 -83l-131 101l132 163q-51 70 -75.5 162.5t-24.5 199.5q0 120 21.5 235.5t63.5 220.5t105.5 194t147.5 154.5t188.5 101.5t228.5 36q97 0 176 -23.5t143 -71.5l120 149l131 -102l-135 -164q47 -67 70.5 -156.5t23.5 -192.5q0 -120 -19.5 -236.5t-60 -222t-101.5 -194
t-143.5 -153.5t-187 -101.5t-231.5 -36.5q-98 0 -177 22t-144 65zM694 181q74 0 139 26.5t119.5 74.5t97 115t72.5 149.5t45.5 177.5t15.5 198q0 38 -5.5 76t-14.5 67l-667 -825q35 -26 85.5 -42.5t112.5 -16.5zM401 381l671 837q-36 31 -86 49t-113 18q-77 0 -143.5 -27
t-122 -76.5t-98.5 -118t-72.5 -151t-45 -175t-15.5 -192.5q0 -44 6.5 -86t18.5 -78z" />
    <glyph glyph-name="Ugrave" unicode="&#xd9;" horiz-adv-x="1402" 
d="M609 -20q-150 0 -252 49t-153 140.5t-51 218.5q0 33 4.5 78t14.5 90l193 906h237l-193 -908q-9 -41 -14.5 -82t-5.5 -70q0 -103 60.5 -160t180.5 -57q106 0 176 38.5t113.5 115.5t67.5 191l198 932h237l-202 -954q-34 -159 -107 -278t-196 -184.5t-308 -65.5zM918 1597
q-40 40 -85.5 95t-84.5 111.5t-62 100.5v21h245q14 -48 34.5 -100t45.5 -103.5t51 -99.5v-25h-144z" />
    <glyph glyph-name="Uacute" unicode="&#xda;" horiz-adv-x="1402" 
d="M609 -20q-150 0 -252 49t-153 140.5t-51 218.5q0 33 4.5 78t14.5 90l193 906h237l-193 -908q-9 -41 -14.5 -82t-5.5 -70q0 -103 60.5 -160t180.5 -57q106 0 176 38.5t113.5 115.5t67.5 191l198 932h237l-202 -954q-34 -159 -107 -278t-196 -184.5t-308 -65.5zM785 1597
v25q35 39 76.5 92t81.5 108.5t70 102.5h262v-18q-22 -28 -61.5 -69t-88 -86t-96.5 -85.5t-88 -69.5h-156z" />
    <glyph glyph-name="Ucircumflex" unicode="&#xdb;" horiz-adv-x="1402" 
d="M609 -20q-150 0 -252 49t-153 140.5t-51 218.5q0 33 4.5 78t14.5 90l193 906h237l-193 -908q-9 -41 -14.5 -82t-5.5 -70q0 -103 60.5 -160t180.5 -57q106 0 176 38.5t113.5 115.5t67.5 191l198 932h237l-202 -954q-34 -159 -107 -278t-196 -184.5t-308 -65.5zM545 1597
l1 25q38 36 94 89.5t110 111t86 102.5h249q21 -50 51 -105t63 -106t59 -92v-25h-151q-24 23 -52 52.5t-56 63t-53 65.5q-60 -52 -119.5 -97.5t-116.5 -83.5h-165z" />
    <glyph glyph-name="Udieresis" unicode="&#xdc;" horiz-adv-x="1402" 
d="M609 -20q-150 0 -252 49t-153 140.5t-51 218.5q0 33 4.5 78t14.5 90l193 906h237l-193 -908q-9 -41 -14.5 -82t-5.5 -70q0 -103 60.5 -160t180.5 -57q106 0 176 38.5t113.5 115.5t67.5 191l198 932h237l-202 -954q-34 -159 -107 -278t-196 -184.5t-308 -65.5zM1120 1640
q-45 0 -74.5 23t-29.5 73q0 60 33 97.5t94 37.5q45 0 73 -22t28 -70q0 -64 -33.5 -101.5t-90.5 -37.5zM745 1640q-46 0 -75 23t-29 73q0 60 32.5 97.5t93.5 37.5q31 0 53.5 -9.5t35.5 -30t13 -52.5q0 -64 -33 -101.5t-91 -37.5z" />
    <glyph glyph-name="Yacute" unicode="&#xdd;" horiz-adv-x="1096" 
d="M308 0l119 555l-239 907h240l156 -668l434 668h267l-624 -910l-116 -552h-237zM626 1597v25q35 39 76.5 92t81.5 108.5t70 102.5h262v-18q-22 -28 -61.5 -69t-88 -86t-96.5 -85.5t-88 -69.5h-156z" />
    <glyph glyph-name="Thorn" unicode="&#xde;" horiz-adv-x="1200" 
d="M70 0l309 1462h237l-52 -242h122q167 0 269 -50t148.5 -140t46.5 -211q0 -128 -45.5 -224t-130 -160t-202 -96t-262.5 -32h-138l-66 -307h-236zM414 507h123q111 0 195 33.5t131 101t47 170.5q0 109 -60.5 158.5t-180.5 49.5h-147z" />
    <glyph glyph-name="germandbls" unicode="&#xdf;" horiz-adv-x="1267" 
d="M-118 -492q-37 0 -76 7t-66 16v193q29 -11 56 -16.5t57 -5.5q64 0 107.5 44t65.5 145l266 1261q30 141 94 233t168.5 137t254.5 45q184 0 292 -80.5t108 -218.5q0 -80 -27.5 -138t-75.5 -102.5t-110 -85.5q-58 -38 -101 -74t-43 -85q0 -23 16.5 -45.5t42.5 -44.5t56 -46
q79 -63 127.5 -129.5t48.5 -166.5q0 -117 -54 -200t-151 -127t-228 -44q-93 0 -163.5 17t-119.5 48v197q50 -33 117 -57.5t137 -24.5q113 0 168.5 48t55.5 120q0 38 -13 66.5t-42.5 58t-78.5 68.5q-80 62 -120.5 119t-40.5 129q0 69 27 117.5t73 85.5t100 71q45 28 81 56.5
t57 62.5t21 79q0 65 -46.5 102t-133.5 37q-82 0 -135.5 -31t-84 -85.5t-45.5 -127.5l-264 -1262q-24 -111 -68.5 -193t-119.5 -127.5t-190 -45.5z" />
    <glyph glyph-name="agrave" unicode="&#xe0;" horiz-adv-x="1188" 
d="M401 -20q-85 0 -154.5 41.5t-110.5 128t-41 220.5q0 116 24.5 226t70 206t110.5 169.5t147 115t177 41.5q72 0 126 -24.5t91 -65.5t60 -91h9l60 160h180l-235 -1107h-179l22 179h-8q-43 -55 -95.5 -100t-115.5 -72t-138 -27zM487 171q70 0 134 52.5t113.5 139.5t73.5 191
q12 50 16.5 95t4.5 90q0 87 -46 142t-126 55q-55 0 -104.5 -31t-89.5 -85.5t-69.5 -125.5t-45 -152.5t-15.5 -165.5q0 -101 40.5 -153t113.5 -52zM740 1241q-40 40 -85.5 95t-84.5 111.5t-62 100.5v21h245q14 -48 34.5 -100t45.5 -103.5t51 -99.5v-25h-144z" />
    <glyph glyph-name="aacute" unicode="&#xe1;" horiz-adv-x="1188" 
d="M401 -20q-85 0 -154.5 41.5t-110.5 128t-41 220.5q0 116 24.5 226t70 206t110.5 169.5t147 115t177 41.5q72 0 126 -24.5t91 -65.5t60 -91h9l60 160h180l-235 -1107h-179l22 179h-8q-43 -55 -95.5 -100t-115.5 -72t-138 -27zM487 171q70 0 134 52.5t113.5 139.5t73.5 191
q12 50 16.5 95t4.5 90q0 87 -46 142t-126 55q-55 0 -104.5 -31t-89.5 -85.5t-69.5 -125.5t-45 -152.5t-15.5 -165.5q0 -101 40.5 -153t113.5 -52zM605 1241v25q35 39 76.5 92t81.5 108.5t70 102.5h262v-18q-22 -28 -61.5 -69t-88 -86t-96.5 -85.5t-88 -69.5h-156z" />
    <glyph glyph-name="acircumflex" unicode="&#xe2;" horiz-adv-x="1188" 
d="M401 -20q-85 0 -154.5 41.5t-110.5 128t-41 220.5q0 116 24.5 226t70 206t110.5 169.5t147 115t177 41.5q72 0 126 -24.5t91 -65.5t60 -91h9l60 160h180l-235 -1107h-179l22 179h-8q-43 -55 -95.5 -100t-115.5 -72t-138 -27zM487 171q70 0 134 52.5t113.5 139.5t73.5 191
q12 50 16.5 95t4.5 90q0 87 -46 142t-126 55q-55 0 -104.5 -31t-89.5 -85.5t-69.5 -125.5t-45 -152.5t-15.5 -165.5q0 -101 40.5 -153t113.5 -52zM366 1241l1 25q38 36 94 89.5t110 111t86 102.5h249q21 -50 51 -105t63 -106t59 -92v-25h-151q-24 23 -52 52.5t-56 63
t-53 65.5q-60 -52 -119.5 -97.5t-116.5 -83.5h-165z" />
    <glyph glyph-name="atilde" unicode="&#xe3;" horiz-adv-x="1188" 
d="M401 -20q-85 0 -154.5 41.5t-110.5 128t-41 220.5q0 116 24.5 226t70 206t110.5 169.5t147 115t177 41.5q72 0 126 -24.5t91 -65.5t60 -91h9l60 160h180l-235 -1107h-179l22 179h-8q-43 -55 -95.5 -100t-115.5 -72t-138 -27zM487 171q70 0 134 52.5t113.5 139.5t73.5 191
q12 50 16.5 95t4.5 90q0 87 -46 142t-126 55q-55 0 -104.5 -31t-89.5 -85.5t-69.5 -125.5t-45 -152.5t-15.5 -165.5q0 -101 40.5 -153t113.5 -52zM369 1242q19 95 55 157.5t86.5 93.5t114.5 31q47 0 86.5 -16.5t73 -38.5t63.5 -38.5t59 -16.5q39 0 64 26t49 86h137
q-22 -96 -59 -159t-87.5 -93.5t-114.5 -30.5q-45 0 -82.5 17t-70.5 39t-64.5 38.5t-64.5 16.5q-37 0 -62.5 -28t-44.5 -84h-138z" />
    <glyph glyph-name="adieresis" unicode="&#xe4;" horiz-adv-x="1188" 
d="M401 -20q-85 0 -154.5 41.5t-110.5 128t-41 220.5q0 116 24.5 226t70 206t110.5 169.5t147 115t177 41.5q72 0 126 -24.5t91 -65.5t60 -91h9l60 160h180l-235 -1107h-179l22 179h-8q-43 -55 -95.5 -100t-115.5 -72t-138 -27zM487 171q70 0 134 52.5t113.5 139.5t73.5 191
q12 50 16.5 95t4.5 90q0 87 -46 142t-126 55q-55 0 -104.5 -31t-89.5 -85.5t-69.5 -125.5t-45 -152.5t-15.5 -165.5q0 -101 40.5 -153t113.5 -52zM941 1284q-45 0 -74.5 23t-29.5 73q0 60 33 97.5t94 37.5q45 0 73 -22t28 -70q0 -64 -33.5 -101.5t-90.5 -37.5zM566 1284
q-46 0 -75 23t-29 73q0 60 32.5 97.5t93.5 37.5q31 0 53.5 -9.5t35.5 -30t13 -52.5q0 -64 -33 -101.5t-91 -37.5z" />
    <glyph glyph-name="aring" unicode="&#xe5;" horiz-adv-x="1188" 
d="M401 -20q-85 0 -154.5 41.5t-110.5 128t-41 220.5q0 116 24.5 226t70 206t110.5 169.5t147 115t177 41.5q72 0 126 -24.5t91 -65.5t60 -91h9l60 160h180l-235 -1107h-179l22 179h-8q-43 -55 -95.5 -100t-115.5 -72t-138 -27zM487 171q70 0 134 52.5t113.5 139.5t73.5 191
q12 50 16.5 95t4.5 90q0 87 -46 142t-126 55q-55 0 -104.5 -31t-89.5 -85.5t-69.5 -125.5t-45 -152.5t-15.5 -165.5q0 -101 40.5 -153t113.5 -52zM757 1241q-103 0 -168 60t-65 166q0 105 66.5 164.5t166.5 59.5q102 0 170 -59.5t68 -162.5q0 -108 -68 -168t-170 -60z
M757 1359q48 0 78 29t30 79q0 49 -30.5 78t-77.5 29q-45 0 -75.5 -29t-30.5 -78q0 -50 27.5 -79t78.5 -29z" />
    <glyph glyph-name="ae" unicode="&#xe6;" horiz-adv-x="1735" 
d="M383 -20q-86 0 -151 45t-101 131.5t-36 212.5q0 120 24.5 232t70.5 207.5t110 167t143 112t170 40.5q69 0 117.5 -23.5t83 -64.5t59.5 -93h10l62 160h148l-25 -122q51 66 132.5 104.5t181.5 38.5q135 0 219 -74t84 -205q0 -86 -39 -157t-118.5 -122.5t-200.5 -79.5
t-285 -28h-48q-1 -15 -2 -29.5t-1 -29.5q0 -106 55.5 -173t182.5 -67q76 0 154 24.5t150 59.5v-187q-78 -36 -164 -58t-179 -22q-110 0 -187 35t-120 109l-25 -124h-149l20 178h-8q-47 -58 -96.5 -102.5t-108.5 -70t-133 -25.5zM469 171q51 0 98 28t87.5 78t72.5 117t51 144
q14 52 19.5 100.5t5.5 94.5q0 91 -39 147t-115 56q-54 0 -102.5 -31t-87.5 -85.5t-67.5 -125.5t-43.5 -152.5t-15 -165.5q0 -105 38 -155t98 -50zM1023 632h36q122 0 211.5 23.5t138.5 69.5t49 112q0 58 -33.5 85.5t-87.5 27.5q-67 0 -129.5 -38.5t-111 -110t-73.5 -169.5z
" />
    <glyph glyph-name="ccedilla" unicode="&#xe7;" horiz-adv-x="959" 
d="M506 -20q-119 0 -212 44t-146 135t-53 232q0 119 25.5 228.5t74.5 202t120 161t162 107t201 38.5q86 0 161 -16.5t138 -45.5l-70 -185q-48 22 -102.5 38.5t-119.5 16.5q-81 0 -146 -43.5t-111 -119t-70.5 -170.5t-24.5 -199q0 -74 25 -126t72.5 -79.5t114.5 -27.5
q74 0 139 21.5t130 53.5v-194q-62 -33 -138 -52.5t-170 -19.5zM319 -492q-38 0 -70.5 6t-52.5 11v134q21 -5 48.5 -10t52.5 -5q45 0 75 11t46 33t16 54q0 39 -35 61.5t-107 30.5l98 166h146l-50 -95q55 -16 96 -54.5t41 -112.5q0 -65 -33.5 -117t-101 -82.5t-169.5 -30.5z
" />
    <glyph glyph-name="egrave" unicode="&#xe8;" horiz-adv-x="1081" 
d="M515 -20q-127 0 -221.5 48.5t-146 143t-51.5 231.5q0 136 39 265.5t115 233.5t185 165t248 61q170 0 255.5 -76.5t85.5 -202.5q0 -86 -39 -157t-118.5 -122.5t-201 -79.5t-285.5 -28h-45q-1 -15 -2 -30.5t-1 -30.5q0 -111 58 -174.5t169 -63.5q84 0 155 21t159 63v-185
q-81 -39 -164 -60.5t-194 -21.5zM364 632h34q122 0 212 23.5t139 70t49 113.5q0 52 -32.5 81.5t-96.5 29.5q-63 0 -124 -38.5t-109 -110t-72 -169.5zM699 1241q-40 40 -85.5 95t-84.5 111.5t-62 100.5v21h245q14 -48 34.5 -100t45.5 -103.5t51 -99.5v-25h-144z" />
    <glyph glyph-name="eacute" unicode="&#xe9;" horiz-adv-x="1081" 
d="M515 -20q-127 0 -221.5 48.5t-146 143t-51.5 231.5q0 136 39 265.5t115 233.5t185 165t248 61q170 0 255.5 -76.5t85.5 -202.5q0 -86 -39 -157t-118.5 -122.5t-201 -79.5t-285.5 -28h-45q-1 -15 -2 -30.5t-1 -30.5q0 -111 58 -174.5t169 -63.5q84 0 155 21t159 63v-185
q-81 -39 -164 -60.5t-194 -21.5zM364 632h34q122 0 212 23.5t139 70t49 113.5q0 52 -32.5 81.5t-96.5 29.5q-63 0 -124 -38.5t-109 -110t-72 -169.5zM567 1241v25q35 39 76.5 92t81.5 108.5t70 102.5h262v-18q-22 -28 -61.5 -69t-88 -86t-96.5 -85.5t-88 -69.5h-156z" />
    <glyph glyph-name="ecircumflex" unicode="&#xea;" horiz-adv-x="1081" 
d="M515 -20q-127 0 -221.5 48.5t-146 143t-51.5 231.5q0 136 39 265.5t115 233.5t185 165t248 61q170 0 255.5 -76.5t85.5 -202.5q0 -86 -39 -157t-118.5 -122.5t-201 -79.5t-285.5 -28h-45q-1 -15 -2 -30.5t-1 -30.5q0 -111 58 -174.5t169 -63.5q84 0 155 21t159 63v-185
q-81 -39 -164 -60.5t-194 -21.5zM364 632h34q122 0 212 23.5t139 70t49 113.5q0 52 -32.5 81.5t-96.5 29.5q-63 0 -124 -38.5t-109 -110t-72 -169.5zM326 1241l1 25q38 36 94 89.5t110 111t86 102.5h249q21 -50 51 -105t63 -106t59 -92v-25h-151q-24 23 -52 52.5t-56 63
t-53 65.5q-60 -52 -119.5 -97.5t-116.5 -83.5h-165z" />
    <glyph glyph-name="edieresis" unicode="&#xeb;" horiz-adv-x="1081" 
d="M515 -20q-127 0 -221.5 48.5t-146 143t-51.5 231.5q0 136 39 265.5t115 233.5t185 165t248 61q170 0 255.5 -76.5t85.5 -202.5q0 -86 -39 -157t-118.5 -122.5t-201 -79.5t-285.5 -28h-45q-1 -15 -2 -30.5t-1 -30.5q0 -111 58 -174.5t169 -63.5q84 0 155 21t159 63v-185
q-81 -39 -164 -60.5t-194 -21.5zM364 632h34q122 0 212 23.5t139 70t49 113.5q0 52 -32.5 81.5t-96.5 29.5q-63 0 -124 -38.5t-109 -110t-72 -169.5zM901 1284q-45 0 -74.5 23t-29.5 73q0 60 33 97.5t94 37.5q45 0 73 -22t28 -70q0 -64 -33.5 -101.5t-90.5 -37.5zM526 1284
q-46 0 -75 23t-29 73q0 60 32.5 97.5t93.5 37.5q31 0 53.5 -9.5t35.5 -30t13 -52.5q0 -64 -33 -101.5t-91 -37.5z" />
    <glyph glyph-name="igrave" unicode="&#xec;" horiz-adv-x="563" 
d="M48 0l235 1107h234l-235 -1107h-234zM426 1241q-40 40 -85.5 95t-84.5 111.5t-62 100.5v21h245q14 -48 34.5 -100t45.5 -103.5t51 -99.5v-25h-144z" />
    <glyph glyph-name="iacute" unicode="&#xed;" horiz-adv-x="563" 
d="M48 0l235 1107h234l-235 -1107h-234zM293 1241v25q35 39 76.5 92t81.5 108.5t70 102.5h262v-18q-22 -28 -61.5 -69t-88 -86t-96.5 -85.5t-88 -69.5h-156z" />
    <glyph glyph-name="icircumflex" unicode="&#xee;" horiz-adv-x="563" 
d="M48 0l235 1107h234l-235 -1107h-234zM54 1241l1 25q38 36 94 89.5t110 111t86 102.5h249q21 -50 51 -105t63 -106t59 -92v-25h-151q-24 23 -52 52.5t-56 63t-53 65.5q-60 -52 -119.5 -97.5t-116.5 -83.5h-165z" />
    <glyph glyph-name="idieresis" unicode="&#xef;" horiz-adv-x="563" 
d="M48 0l235 1107h234l-235 -1107h-234zM628 1284q-45 0 -74.5 23t-29.5 73q0 60 33 97.5t94 37.5q45 0 73 -22t28 -70q0 -64 -33.5 -101.5t-90.5 -37.5zM253 1284q-46 0 -75 23t-29 73q0 60 32.5 97.5t93.5 37.5q31 0 53.5 -9.5t35.5 -30t13 -52.5q0 -64 -33 -101.5
t-91 -37.5z" />
    <glyph glyph-name="eth" unicode="&#xf0;" horiz-adv-x="1173" 
d="M497 -20q-125 0 -218.5 45.5t-145.5 136.5t-52 229q0 117 35.5 223.5t102 189t162 130t215.5 47.5q111 0 178.5 -44.5t100.5 -105.5l8 1q-3 102 -31.5 199.5t-101.5 179.5l-249 -139l-72 125l219 122q-26 26 -60.5 50t-74.5 47l105 151q57 -32 112 -69t98 -78l247 138
l69 -127l-215 -119q51 -66 86 -144t53 -169.5t18 -199.5q0 -125 -20.5 -245t-64 -223.5t-112.5 -182.5t-166.5 -123.5t-225.5 -44.5zM509 162q62 0 111.5 26t86.5 70.5t61.5 100t36.5 115t12 115.5q0 40 -11 77.5t-34 68t-60.5 48t-90.5 17.5q-77 0 -134.5 -36.5t-95 -98
t-55.5 -136.5t-18 -152q0 -96 46.5 -155.5t144.5 -59.5z" />
    <glyph glyph-name="ntilde" unicode="&#xf1;" horiz-adv-x="1209" 
d="M44 0l236 1110h189l-24 -209h6q40 59 93 111.5t120.5 85.5t151.5 33q92 0 156 -36t97 -103t33 -160q0 -41 -6.5 -87.5t-16.5 -90.5l-139 -654h-239l142 673q9 39 13.5 70t4.5 58q0 66 -32.5 99t-96.5 33q-70 0 -138 -54t-123 -157t-87 -249l-100 -473h-240zM383 1242
q19 95 55 157.5t86.5 93.5t114.5 31q47 0 86.5 -16.5t73 -38.5t63.5 -38.5t59 -16.5q39 0 64 26t49 86h137q-22 -96 -59 -159t-87.5 -93.5t-114.5 -30.5q-45 0 -82.5 17t-70.5 39t-64.5 38.5t-64.5 16.5q-37 0 -62.5 -28t-44.5 -84h-138z" />
    <glyph glyph-name="ograve" unicode="&#xf2;" horiz-adv-x="1176" 
d="M512 -18q-126 0 -220 52t-145.5 147.5t-51.5 226.5q0 111 23.5 216t69.5 196t115 159.5t160 107t204 38.5q129 0 222 -52t143 -149t50 -232q0 -108 -22.5 -211t-67.5 -193.5t-113.5 -159t-160 -107.5t-206.5 -39zM529 174q56 0 104.5 25.5t87.5 73t66.5 113t42.5 145.5
t15 171q0 61 -18 113.5t-59.5 85t-110.5 32.5q-62 0 -113.5 -29.5t-91 -81.5t-66.5 -119.5t-41 -144t-14 -154.5q0 -111 50.5 -170.5t147.5 -59.5zM708 1241q-40 40 -85.5 95t-84.5 111.5t-62 100.5v21h245q14 -48 34.5 -100t45.5 -103.5t51 -99.5v-25h-144z" />
    <glyph glyph-name="oacute" unicode="&#xf3;" horiz-adv-x="1176" 
d="M512 -18q-126 0 -220 52t-145.5 147.5t-51.5 226.5q0 111 23.5 216t69.5 196t115 159.5t160 107t204 38.5q129 0 222 -52t143 -149t50 -232q0 -108 -22.5 -211t-67.5 -193.5t-113.5 -159t-160 -107.5t-206.5 -39zM529 174q56 0 104.5 25.5t87.5 73t66.5 113t42.5 145.5
t15 171q0 61 -18 113.5t-59.5 85t-110.5 32.5q-62 0 -113.5 -29.5t-91 -81.5t-66.5 -119.5t-41 -144t-14 -154.5q0 -111 50.5 -170.5t147.5 -59.5zM576 1241v25q35 39 76.5 92t81.5 108.5t70 102.5h262v-18q-22 -28 -61.5 -69t-88 -86t-96.5 -85.5t-88 -69.5h-156z" />
    <glyph glyph-name="ocircumflex" unicode="&#xf4;" horiz-adv-x="1176" 
d="M512 -18q-126 0 -220 52t-145.5 147.5t-51.5 226.5q0 111 23.5 216t69.5 196t115 159.5t160 107t204 38.5q129 0 222 -52t143 -149t50 -232q0 -108 -22.5 -211t-67.5 -193.5t-113.5 -159t-160 -107.5t-206.5 -39zM529 174q56 0 104.5 25.5t87.5 73t66.5 113t42.5 145.5
t15 171q0 61 -18 113.5t-59.5 85t-110.5 32.5q-62 0 -113.5 -29.5t-91 -81.5t-66.5 -119.5t-41 -144t-14 -154.5q0 -111 50.5 -170.5t147.5 -59.5zM336 1241l1 25q38 36 94 89.5t110 111t86 102.5h249q21 -50 51 -105t63 -106t59 -92v-25h-151q-24 23 -52 52.5t-56 63
t-53 65.5q-60 -52 -119.5 -97.5t-116.5 -83.5h-165z" />
    <glyph glyph-name="otilde" unicode="&#xf5;" horiz-adv-x="1176" 
d="M512 -18q-126 0 -220 52t-145.5 147.5t-51.5 226.5q0 111 23.5 216t69.5 196t115 159.5t160 107t204 38.5q129 0 222 -52t143 -149t50 -232q0 -108 -22.5 -211t-67.5 -193.5t-113.5 -159t-160 -107.5t-206.5 -39zM529 174q56 0 104.5 25.5t87.5 73t66.5 113t42.5 145.5
t15 171q0 61 -18 113.5t-59.5 85t-110.5 32.5q-62 0 -113.5 -29.5t-91 -81.5t-66.5 -119.5t-41 -144t-14 -154.5q0 -111 50.5 -170.5t147.5 -59.5zM340 1242q19 95 55 157.5t86.5 93.5t114.5 31q47 0 86.5 -16.5t73 -38.5t63.5 -38.5t59 -16.5q39 0 64 26t49 86h137
q-22 -96 -59 -159t-87.5 -93.5t-114.5 -30.5q-45 0 -82.5 17t-70.5 39t-64.5 38.5t-64.5 16.5q-37 0 -62.5 -28t-44.5 -84h-138z" />
    <glyph glyph-name="odieresis" unicode="&#xf6;" horiz-adv-x="1176" 
d="M512 -18q-126 0 -220 52t-145.5 147.5t-51.5 226.5q0 111 23.5 216t69.5 196t115 159.5t160 107t204 38.5q129 0 222 -52t143 -149t50 -232q0 -108 -22.5 -211t-67.5 -193.5t-113.5 -159t-160 -107.5t-206.5 -39zM529 174q56 0 104.5 25.5t87.5 73t66.5 113t42.5 145.5
t15 171q0 61 -18 113.5t-59.5 85t-110.5 32.5q-62 0 -113.5 -29.5t-91 -81.5t-66.5 -119.5t-41 -144t-14 -154.5q0 -111 50.5 -170.5t147.5 -59.5zM912 1284q-45 0 -74.5 23t-29.5 73q0 60 33 97.5t94 37.5q45 0 73 -22t28 -70q0 -64 -33.5 -101.5t-90.5 -37.5zM537 1284
q-46 0 -75 23t-29 73q0 60 32.5 97.5t93.5 37.5q31 0 53.5 -9.5t35.5 -30t13 -52.5q0 -64 -33 -101.5t-91 -37.5z" />
    <glyph glyph-name="divide" unicode="&#xf7;" horiz-adv-x="1171" 
d="M127 633v178h978v-178h-978zM615 237q-52 0 -88 32.5t-36 102.5q0 75 36 104.5t88 29.5q50 0 86 -29.5t36 -104.5q0 -70 -36 -102.5t-86 -32.5zM615 938q-52 0 -88 32t-36 102q0 75 36 104.5t88 29.5q50 0 86 -29.5t36 -104.5q0 -70 -36 -102t-86 -32z" />
    <glyph glyph-name="oslash" unicode="&#xf8;" horiz-adv-x="1176" 
d="M169 -89l-121 94l118 144q-34 53 -52 117t-18 142q0 111 23 216t69 196t115 159.5t160 107t204 38.5q73 0 133 -16t108 -48l88 108l123 -93l-102 -118q32 -51 47.5 -118t15.5 -140q0 -108 -22 -212.5t-67 -195.5t-113 -161t-159 -109.5t-206 -39.5q-69 0 -129 16t-108 46
zM529 167q59 0 108.5 26.5t88.5 74t66.5 110t42.5 136t17 150.5q1 24 -1 45t-6 35l-440 -540q20 -17 53.5 -27t70.5 -10zM334 354l446 547q-19 15 -50 26.5t-73 11.5q-64 0 -116 -28t-92 -76.5t-67 -111.5t-41 -134t-16 -144q-1 -27 1.5 -51t7.5 -40z" />
    <glyph glyph-name="ugrave" unicode="&#xf9;" horiz-adv-x="1209" 
d="M391 -20q-89 0 -151.5 35t-95 101.5t-32.5 159.5q0 41 6.5 90.5t16.5 102.5l136 638h234l-143 -672q-7 -39 -11.5 -70.5t-4.5 -57.5q0 -67 31.5 -101.5t98.5 -34.5q72 0 140.5 54.5t124.5 158.5t87 251l100 472h232l-234 -1107h-184l24 210h-10q-40 -59 -93 -111.5
t-120 -85.5t-152 -33zM749 1241q-40 40 -85.5 95t-84.5 111.5t-62 100.5v21h245q14 -48 34.5 -100t45.5 -103.5t51 -99.5v-25h-144z" />
    <glyph glyph-name="uacute" unicode="&#xfa;" horiz-adv-x="1209" 
d="M391 -20q-89 0 -151.5 35t-95 101.5t-32.5 159.5q0 41 6.5 90.5t16.5 102.5l136 638h234l-143 -672q-7 -39 -11.5 -70.5t-4.5 -57.5q0 -67 31.5 -101.5t98.5 -34.5q72 0 140.5 54.5t124.5 158.5t87 251l100 472h232l-234 -1107h-184l24 210h-10q-40 -59 -93 -111.5
t-120 -85.5t-152 -33zM616 1241v25q35 39 76.5 92t81.5 108.5t70 102.5h262v-18q-22 -28 -61.5 -69t-88 -86t-96.5 -85.5t-88 -69.5h-156z" />
    <glyph glyph-name="ucircumflex" unicode="&#xfb;" horiz-adv-x="1209" 
d="M391 -20q-89 0 -151.5 35t-95 101.5t-32.5 159.5q0 41 6.5 90.5t16.5 102.5l136 638h234l-143 -672q-7 -39 -11.5 -70.5t-4.5 -57.5q0 -67 31.5 -101.5t98.5 -34.5q72 0 140.5 54.5t124.5 158.5t87 251l100 472h232l-234 -1107h-184l24 210h-10q-40 -59 -93 -111.5
t-120 -85.5t-152 -33zM376 1241l1 25q38 36 94 89.5t110 111t86 102.5h249q21 -50 51 -105t63 -106t59 -92v-25h-151q-24 23 -52 52.5t-56 63t-53 65.5q-60 -52 -119.5 -97.5t-116.5 -83.5h-165z" />
    <glyph glyph-name="udieresis" unicode="&#xfc;" horiz-adv-x="1209" 
d="M391 -20q-89 0 -151.5 35t-95 101.5t-32.5 159.5q0 41 6.5 90.5t16.5 102.5l136 638h234l-143 -672q-7 -39 -11.5 -70.5t-4.5 -57.5q0 -67 31.5 -101.5t98.5 -34.5q72 0 140.5 54.5t124.5 158.5t87 251l100 472h232l-234 -1107h-184l24 210h-10q-40 -59 -93 -111.5
t-120 -85.5t-152 -33zM951 1284q-45 0 -74.5 23t-29.5 73q0 60 33 97.5t94 37.5q45 0 73 -22t28 -70q0 -64 -33.5 -101.5t-90.5 -37.5zM576 1284q-46 0 -75 23t-29 73q0 60 32.5 97.5t93.5 37.5q31 0 53.5 -9.5t35.5 -30t13 -52.5q0 -64 -33 -101.5t-91 -37.5z" />
    <glyph glyph-name="yacute" unicode="&#xfd;" horiz-adv-x="1003" 
d="M-26 -492q-51 0 -83.5 6t-59.5 14v187q27 -6 57 -10.5t66 -4.5q89 0 149.5 53.5t111.5 147.5l51 93l-166 1113h232l66 -540q7 -56 11.5 -120t6.5 -123.5t2 -100.5h7q14 34 35 86t47 111t52 110l294 577h253l-691 -1282q-57 -106 -122.5 -177t-143.5 -105.5t-175 -34.5z
M475 1241v25q35 39 76.5 92t81.5 108.5t70 102.5h262v-18q-22 -28 -61.5 -69t-88 -86t-96.5 -85.5t-88 -69.5h-156z" />
    <glyph glyph-name="thorn" unicode="&#xfe;" horiz-adv-x="1201" 
d="M-56 -491l434 2047h233l-73 -341q-16 -75 -37.5 -152.5t-39.5 -136.5h8q45 59 96.5 104.5t109 71t122.5 25.5q138 0 223 -98t85 -294q0 -108 -21.5 -216t-63.5 -204.5t-104.5 -172t-145 -119t-183.5 -43.5q-73 0 -126.5 24.5t-91.5 65.5t-62 90h-9q-4 -58 -13 -122.5
t-22 -122.5l-86 -406h-233zM546 171q58 0 108 31.5t89.5 86.5t67 127t42 152.5t14.5 162.5q0 102 -42 153.5t-121 51.5q-69 0 -133 -52.5t-112.5 -140.5t-72.5 -195q-9 -43 -13.5 -86.5t-4.5 -86.5q0 -92 43 -148t135 -56z" />
    <glyph glyph-name="ydieresis" unicode="&#xff;" horiz-adv-x="1003" 
d="M-26 -492q-51 0 -83.5 6t-59.5 14v187q27 -6 57 -10.5t66 -4.5q89 0 149.5 53.5t111.5 147.5l51 93l-166 1113h232l66 -540q7 -56 11.5 -120t6.5 -123.5t2 -100.5h7q14 34 35 86t47 111t52 110l294 577h253l-691 -1282q-57 -106 -122.5 -177t-143.5 -105.5t-175 -34.5z
M811 1284q-45 0 -74.5 23t-29.5 73q0 60 33 97.5t94 37.5q45 0 73 -22t28 -70q0 -64 -33.5 -101.5t-90.5 -37.5zM436 1284q-46 0 -75 23t-29 73q0 60 32.5 97.5t93.5 37.5q31 0 53.5 -9.5t35.5 -30t13 -52.5q0 -64 -33 -101.5t-91 -37.5z" />
    <glyph glyph-name="Amacron" unicode="&#x100;" horiz-adv-x="1217" 
d="M-119 0l784 1462h275l166 -1462h-232l-41 407h-489l-210 -407h-253zM447 613h370l-33 359q-5 67 -11 141.5t-6 141.5h-6q-25 -65 -58 -134.5t-71 -142.5zM532 1598l36 173h582l-36 -173h-582z" />
    <glyph glyph-name="amacron" unicode="&#x101;" horiz-adv-x="1188" 
d="M401 -20q-85 0 -154.5 41.5t-110.5 128t-41 220.5q0 116 24.5 226t70 206t110.5 169.5t147 115t177 41.5q72 0 126 -24.5t91 -65.5t60 -91h9l60 160h180l-235 -1107h-179l22 179h-8q-43 -55 -95.5 -100t-115.5 -72t-138 -27zM487 171q70 0 134 52.5t113.5 139.5t73.5 191
q12 50 16.5 95t4.5 90q0 87 -46 142t-126 55q-55 0 -104.5 -31t-89.5 -85.5t-69.5 -125.5t-45 -152.5t-15.5 -165.5q0 -101 40.5 -153t113.5 -52zM441 1242l36 173h582l-36 -173h-582z" />
    <glyph glyph-name="Abreve" unicode="&#x102;" horiz-adv-x="1217" 
d="M-119 0l784 1462h275l166 -1462h-232l-41 407h-489l-210 -407h-253zM447 613h370l-33 359q-5 67 -11 141.5t-6 141.5h-6q-25 -65 -58 -134.5t-71 -142.5zM825 1597q-96 0 -159.5 33t-95 89.5t-31.5 126.5q0 16 1 29.5t3 25.5h137q0 -41 15.5 -69.5t50.5 -43.5t92 -15
q86 0 135 31.5t65 96.5h147q-30 -152 -119 -228t-241 -76z" />
    <glyph glyph-name="abreve" unicode="&#x103;" horiz-adv-x="1188" 
d="M401 -20q-85 0 -154.5 41.5t-110.5 128t-41 220.5q0 116 24.5 226t70 206t110.5 169.5t147 115t177 41.5q72 0 126 -24.5t91 -65.5t60 -91h9l60 160h180l-235 -1107h-179l22 179h-8q-43 -55 -95.5 -100t-115.5 -72t-138 -27zM487 171q70 0 134 52.5t113.5 139.5t73.5 191
q12 50 16.5 95t4.5 90q0 87 -46 142t-126 55q-55 0 -104.5 -31t-89.5 -85.5t-69.5 -125.5t-45 -152.5t-15.5 -165.5q0 -101 40.5 -153t113.5 -52zM734 1241q-96 0 -159.5 33t-95 89.5t-31.5 126.5q0 16 1 29.5t3 25.5h137q0 -41 15.5 -69.5t50.5 -43.5t92 -15q86 0 135 31.5
t65 96.5h147q-30 -152 -119 -228t-241 -76z" />
    <glyph glyph-name="Aogonek" unicode="&#x104;" horiz-adv-x="1217" 
d="M-119 0l784 1462h275l166 -1462h-232l-41 407h-489l-210 -407h-253zM447 613h370l-33 359q-5 67 -11 141.5t-6 141.5h-6q-25 -65 -58 -134.5t-71 -142.5zM857 -468q-89 0 -144 46.5t-55 131.5q0 66 28.5 117t77.5 93.5t111 81.5l156 -2q-44 -35 -89 -74.5t-74.5 -84.5
t-29.5 -97q0 -32 17.5 -48.5t47.5 -16.5q25 0 47.5 4t45.5 10v-141q-31 -9 -65 -14.5t-74 -5.5z" />
    <glyph glyph-name="aogonek" unicode="&#x105;" horiz-adv-x="1188" 
d="M401 -20q-85 0 -154.5 41.5t-110.5 128t-41 220.5q0 116 24.5 226t70 206t110.5 169.5t147 115t177 41.5q72 0 126 -24.5t91 -65.5t60 -91h9l60 160h180l-235 -1107h-179l22 179h-8q-43 -55 -95.5 -100t-115.5 -72t-138 -27zM487 171q70 0 134 52.5t113.5 139.5t73.5 191
q12 50 16.5 95t4.5 90q0 87 -46 142t-126 55q-55 0 -104.5 -31t-89.5 -85.5t-69.5 -125.5t-45 -152.5t-15.5 -165.5q0 -101 40.5 -153t113.5 -52zM719 -468q-89 0 -144 46.5t-55 131.5q0 66 28.5 117t77.5 93.5t111 81.5l156 -2q-44 -35 -89 -74.5t-74.5 -84.5t-29.5 -97
q0 -32 17.5 -48.5t47.5 -16.5q25 0 47.5 4t45.5 10v-141q-31 -9 -65 -14.5t-74 -5.5z" />
    <glyph glyph-name="Cacute" unicode="&#x106;" horiz-adv-x="1229" 
d="M664 -20q-170 0 -287.5 69.5t-178.5 196.5t-61 301q0 132 30.5 266t92.5 254.5t156 214t220.5 148t286.5 54.5q122 0 213.5 -23t178.5 -70l-93 -195q-64 36 -136 60t-163 24q-111 0 -198.5 -42t-152 -115t-106.5 -166.5t-63 -196t-21 -203.5q0 -179 83 -275.5t244 -96.5
q85 0 168.5 19t164.5 49v-204q-70 -26 -162.5 -47.5t-215.5 -21.5zM794 1597v25q35 39 76.5 92t81.5 108.5t70 102.5h262v-18q-22 -28 -61.5 -69t-88 -86t-96.5 -85.5t-88 -69.5h-156z" />
    <glyph glyph-name="cacute" unicode="&#x107;" horiz-adv-x="959" 
d="M506 -20q-119 0 -212 44t-146 135t-53 232q0 119 25.5 228.5t74.5 202t120 161t162 107t201 38.5q86 0 161 -16.5t138 -45.5l-70 -185q-48 22 -102.5 38.5t-119.5 16.5q-81 0 -146 -43.5t-111 -119t-70.5 -170.5t-24.5 -199q0 -74 25 -126t72.5 -79.5t114.5 -27.5
q74 0 139 21.5t130 53.5v-194q-62 -33 -138 -52.5t-170 -19.5zM543 1241v25q35 39 76.5 92t81.5 108.5t70 102.5h262v-18q-22 -28 -61.5 -69t-88 -86t-96.5 -85.5t-88 -69.5h-156z" />
    <glyph glyph-name="Ccircumflex" unicode="&#x108;" horiz-adv-x="1229" 
d="M664 -20q-170 0 -287.5 69.5t-178.5 196.5t-61 301q0 132 30.5 266t92.5 254.5t156 214t220.5 148t286.5 54.5q122 0 213.5 -23t178.5 -70l-93 -195q-64 36 -136 60t-163 24q-111 0 -198.5 -42t-152 -115t-106.5 -166.5t-63 -196t-21 -203.5q0 -179 83 -275.5t244 -96.5
q85 0 168.5 19t164.5 49v-204q-70 -26 -162.5 -47.5t-215.5 -21.5zM557 1597l1 25q38 36 94 89.5t110 111t86 102.5h249q21 -50 51 -105t63 -106t59 -92v-25h-151q-24 23 -52 52.5t-56 63t-53 65.5q-60 -52 -119.5 -97.5t-116.5 -83.5h-165z" />
    <glyph glyph-name="ccircumflex" unicode="&#x109;" horiz-adv-x="959" 
d="M506 -20q-119 0 -212 44t-146 135t-53 232q0 119 25.5 228.5t74.5 202t120 161t162 107t201 38.5q86 0 161 -16.5t138 -45.5l-70 -185q-48 22 -102.5 38.5t-119.5 16.5q-81 0 -146 -43.5t-111 -119t-70.5 -170.5t-24.5 -199q0 -74 25 -126t72.5 -79.5t114.5 -27.5
q74 0 139 21.5t130 53.5v-194q-62 -33 -138 -52.5t-170 -19.5zM304 1241l1 25q38 36 94 89.5t110 111t86 102.5h249q21 -50 51 -105t63 -106t59 -92v-25h-151q-24 23 -52 52.5t-56 63t-53 65.5q-60 -52 -119.5 -97.5t-116.5 -83.5h-165z" />
    <glyph glyph-name="Cdot" unicode="&#x10a;" horiz-adv-x="1229" 
d="M664 -20q-170 0 -287.5 69.5t-178.5 196.5t-61 301q0 132 30.5 266t92.5 254.5t156 214t220.5 148t286.5 54.5q122 0 213.5 -23t178.5 -70l-93 -195q-64 36 -136 60t-163 24q-111 0 -198.5 -42t-152 -115t-106.5 -166.5t-63 -196t-21 -203.5q0 -179 83 -275.5t244 -96.5
q85 0 168.5 19t164.5 49v-204q-70 -26 -162.5 -47.5t-215.5 -21.5zM945 1629q-52 0 -87.5 25.5t-35.5 80.5q0 68 39.5 109.5t109.5 41.5q35 0 61.5 -10.5t42 -33.5t15.5 -59q0 -70 -39 -112t-106 -42z" />
    <glyph glyph-name="cdot" unicode="&#x10b;" horiz-adv-x="959" 
d="M506 -20q-119 0 -212 44t-146 135t-53 232q0 119 25.5 228.5t74.5 202t120 161t162 107t201 38.5q86 0 161 -16.5t138 -45.5l-70 -185q-48 22 -102.5 38.5t-119.5 16.5q-81 0 -146 -43.5t-111 -119t-70.5 -170.5t-24.5 -199q0 -74 25 -126t72.5 -79.5t114.5 -27.5
q74 0 139 21.5t130 53.5v-194q-62 -33 -138 -52.5t-170 -19.5zM692 1273q-52 0 -87.5 25.5t-35.5 80.5q0 68 39.5 109.5t109.5 41.5q35 0 61.5 -10.5t42 -33.5t15.5 -59q0 -70 -39 -112t-106 -42z" />
    <glyph glyph-name="Ccaron" unicode="&#x10c;" horiz-adv-x="1229" 
d="M664 -20q-170 0 -287.5 69.5t-178.5 196.5t-61 301q0 132 30.5 266t92.5 254.5t156 214t220.5 148t286.5 54.5q122 0 213.5 -23t178.5 -70l-93 -195q-64 36 -136 60t-163 24q-111 0 -198.5 -42t-152 -115t-106.5 -166.5t-63 -196t-21 -203.5q0 -179 83 -275.5t244 -96.5
q85 0 168.5 19t164.5 49v-204q-70 -26 -162.5 -47.5t-215.5 -21.5zM802 1597q-19 50 -49.5 104.5t-63 106.5t-59.5 92v25h150q26 -22 53.5 -51.5t55.5 -63t52 -66.5q61 52 121 97.5t118 83.5h164l-1 -25q-38 -35 -94 -89t-110.5 -111t-87.5 -103h-249z" />
    <glyph glyph-name="ccaron" unicode="&#x10d;" horiz-adv-x="959" 
d="M506 -20q-119 0 -212 44t-146 135t-53 232q0 119 25.5 228.5t74.5 202t120 161t162 107t201 38.5q86 0 161 -16.5t138 -45.5l-70 -185q-48 22 -102.5 38.5t-119.5 16.5q-81 0 -146 -43.5t-111 -119t-70.5 -170.5t-24.5 -199q0 -74 25 -126t72.5 -79.5t114.5 -27.5
q74 0 139 21.5t130 53.5v-194q-62 -33 -138 -52.5t-170 -19.5zM551 1241q-19 50 -49.5 104.5t-63 106.5t-59.5 92v25h150q26 -22 53.5 -51.5t55.5 -63t52 -66.5q61 52 121 97.5t118 83.5h164l-1 -25q-38 -35 -94 -89t-110.5 -111t-87.5 -103h-249z" />
    <glyph glyph-name="Dcaron" unicode="&#x10e;" horiz-adv-x="1377" 
d="M70 0l309 1462h368q268 0 417 -142.5t149 -425.5q0 -158 -35.5 -295t-104.5 -247.5t-171 -189t-235 -120.5t-295 -42h-402zM349 201h135q116 0 209.5 35t163.5 98.5t117 149.5t70.5 188.5t23.5 214.5q0 195 -93.5 285.5t-252.5 90.5h-148zM778 1597q-19 50 -49.5 104.5
t-63 106.5t-59.5 92v25h150q26 -22 53.5 -51.5t55.5 -63t52 -66.5q61 52 121 97.5t118 83.5h164l-1 -25q-38 -35 -94 -89t-110.5 -111t-87.5 -103h-249z" />
    <glyph glyph-name="dcaron" unicode="&#x10f;" horiz-adv-x="1314" 
d="M402 -20q-86 0 -155.5 41t-110.5 127.5t-41 222.5q0 114 23.5 223.5t68.5 206t110 170t147.5 115t179.5 41.5q72 0 123 -25t86 -66t59 -89h9q3 26 7.5 66.5t11.5 88t17 92.5l77 362h233l-330 -1556h-183l22 179h-7q-44 -56 -95.5 -101t-113.5 -71.5t-138 -26.5zM493 171
q47 0 90.5 24t81 66.5t68.5 98t53 118.5t34 128t12 126q0 93 -44.5 148.5t-132.5 55.5q-57 0 -106 -32t-89 -87t-68.5 -126.5t-43.5 -152.5t-15 -162q0 -101 40.5 -153t119.5 -52zM1267 1229v25q21 37 47.5 91t51 110.5t39.5 100.5h220v-19q-19 -40 -54.5 -94t-79 -110.5
t-88.5 -103.5h-136z" />
    <glyph glyph-name="Dcroat" unicode="&#x110;" horiz-adv-x="1377" 
d="M70 0l130 624h-146l43 200h145l137 638h368q268 0 417 -142.5t149 -425.5q0 -158 -35.5 -295t-104.5 -247.5t-171 -189t-235 -120.5t-295 -42h-402zM349 201h135q116 0 209.5 35t163.5 98.5t117 149.5t70.5 188.5t23.5 214.5q0 195 -93.5 285.5t-252.5 90.5h-148
l-93 -439h284l-44 -200h-284z" />
    <glyph glyph-name="dcroat" unicode="&#x111;" horiz-adv-x="1200" 
d="M407 -20q-91 0 -161.5 43.5t-110.5 130.5t-40 217q0 104 21.5 208t64 197t105.5 165.5t145.5 114t184.5 41.5q73 0 125.5 -23.5t88.5 -62.5t58 -86h9q2 23 5 54.5t8 66t11 64.5l21 110h-335l33 162h338l36 174h233l-37 -174h151l-34 -162h-153l-257 -1220h-181l20 179h-7
q-43 -53 -93 -98.5t-111.5 -73t-137.5 -27.5zM496 171q45 0 87 22t79.5 61.5t68 91t53 112t35 125t12.5 127.5q0 89 -42.5 142.5t-134.5 53.5q-58 0 -107.5 -30t-89 -82.5t-67.5 -120t-42.5 -144t-14.5 -153.5q0 -101 42 -153t121 -52z" />
    <glyph glyph-name="Emacron" unicode="&#x112;" horiz-adv-x="1084" 
d="M70 0l309 1462h779l-43 -202h-542l-84 -397h507l-42 -201h-507l-98 -459h542l-43 -203h-778zM486 1598l36 173h582l-36 -173h-582z" />
    <glyph glyph-name="emacron" unicode="&#x113;" horiz-adv-x="1081" 
d="M515 -20q-127 0 -221.5 48.5t-146 143t-51.5 231.5q0 136 39 265.5t115 233.5t185 165t248 61q170 0 255.5 -76.5t85.5 -202.5q0 -86 -39 -157t-118.5 -122.5t-201 -79.5t-285.5 -28h-45q-1 -15 -2 -30.5t-1 -30.5q0 -111 58 -174.5t169 -63.5q84 0 155 21t159 63v-185
q-81 -39 -164 -60.5t-194 -21.5zM364 632h34q122 0 212 23.5t139 70t49 113.5q0 52 -32.5 81.5t-96.5 29.5q-63 0 -124 -38.5t-109 -110t-72 -169.5zM400 1242l36 173h582l-36 -173h-582z" />
    <glyph glyph-name="Ebreve" unicode="&#x114;" horiz-adv-x="1084" 
d="M70 0l309 1462h779l-43 -202h-542l-84 -397h507l-42 -201h-507l-98 -459h542l-43 -203h-778zM779 1597q-96 0 -159.5 33t-95 89.5t-31.5 126.5q0 16 1 29.5t3 25.5h137q0 -41 15.5 -69.5t50.5 -43.5t92 -15q86 0 135 31.5t65 96.5h147q-30 -152 -119 -228t-241 -76z" />
    <glyph glyph-name="ebreve" unicode="&#x115;" horiz-adv-x="1081" 
d="M515 -20q-127 0 -221.5 48.5t-146 143t-51.5 231.5q0 136 39 265.5t115 233.5t185 165t248 61q170 0 255.5 -76.5t85.5 -202.5q0 -86 -39 -157t-118.5 -122.5t-201 -79.5t-285.5 -28h-45q-1 -15 -2 -30.5t-1 -30.5q0 -111 58 -174.5t169 -63.5q84 0 155 21t159 63v-185
q-81 -39 -164 -60.5t-194 -21.5zM364 632h34q122 0 212 23.5t139 70t49 113.5q0 52 -32.5 81.5t-96.5 29.5q-63 0 -124 -38.5t-109 -110t-72 -169.5zM695 1241q-96 0 -159.5 33t-95 89.5t-31.5 126.5q0 16 1 29.5t3 25.5h137q0 -41 15.5 -69.5t50.5 -43.5t92 -15
q86 0 135 31.5t65 96.5h147q-30 -152 -119 -228t-241 -76z" />
    <glyph glyph-name="Edotaccent" unicode="&#x116;" horiz-adv-x="1084" 
d="M70 0l309 1462h779l-43 -202h-542l-84 -397h507l-42 -201h-507l-98 -459h542l-43 -203h-778zM800 1629q-52 0 -87.5 25.5t-35.5 80.5q0 68 39.5 109.5t109.5 41.5q35 0 61.5 -10.5t42 -33.5t15.5 -59q0 -70 -39 -112t-106 -42z" />
    <glyph glyph-name="edotaccent" unicode="&#x117;" horiz-adv-x="1081" 
d="M515 -20q-127 0 -221.5 48.5t-146 143t-51.5 231.5q0 136 39 265.5t115 233.5t185 165t248 61q170 0 255.5 -76.5t85.5 -202.5q0 -86 -39 -157t-118.5 -122.5t-201 -79.5t-285.5 -28h-45q-1 -15 -2 -30.5t-1 -30.5q0 -111 58 -174.5t169 -63.5q84 0 155 21t159 63v-185
q-81 -39 -164 -60.5t-194 -21.5zM364 632h34q122 0 212 23.5t139 70t49 113.5q0 52 -32.5 81.5t-96.5 29.5q-63 0 -124 -38.5t-109 -110t-72 -169.5zM714 1273q-52 0 -87.5 25.5t-35.5 80.5q0 68 39.5 109.5t109.5 41.5q35 0 61.5 -10.5t42 -33.5t15.5 -59q0 -70 -39 -112
t-106 -42z" />
    <glyph glyph-name="Eogonek" unicode="&#x118;" horiz-adv-x="1084" 
d="M70 0l309 1462h779l-43 -202h-542l-84 -397h507l-42 -201h-507l-98 -459h542l-43 -203h-778zM609 -468q-89 0 -144 46.5t-55 131.5q0 66 28.5 117t77.5 93.5t111 81.5l156 -2q-44 -35 -89 -74.5t-74.5 -84.5t-29.5 -97q0 -32 17.5 -48.5t47.5 -16.5q25 0 47.5 4t45.5 10
v-141q-31 -9 -65 -14.5t-74 -5.5z" />
    <glyph glyph-name="eogonek" unicode="&#x119;" horiz-adv-x="1081" 
d="M604 -467q-90 0 -145 46.5t-55 131.5q0 66 28.5 117t77.5 93.5t111 81.5l203 45q-64 -51 -119 -101t-87.5 -100t-32.5 -102q0 -32 17 -48.5t47 -16.5q25 0 48 4.5t45 9.5v-141q-31 -9 -65.5 -14.5t-72.5 -5.5zM514 -20q-127 0 -221.5 48.5t-146 143t-51.5 231.5
q0 136 39 265.5t115 233.5t185 165t248 61q170 0 255.5 -76.5t85.5 -202.5q0 -86 -39 -157t-118.5 -122.5t-201 -79.5t-285.5 -28h-45q-1 -15 -2 -30.5t-1 -30.5q0 -111 58 -174.5t169 -63.5q84 0 155 21t159 63v-185q-81 -39 -164 -60.5t-194 -21.5zM363 632h34
q122 0 212 23.5t139 70t49 113.5q0 52 -32.5 81.5t-96.5 29.5q-63 0 -124 -38.5t-109 -110t-72 -169.5z" />
    <glyph glyph-name="Ecaron" unicode="&#x11a;" horiz-adv-x="1084" 
d="M70 0l309 1462h779l-43 -202h-542l-84 -397h507l-42 -201h-507l-98 -459h542l-43 -203h-778zM656 1597q-19 50 -49.5 104.5t-63 106.5t-59.5 92v25h150q26 -22 53.5 -51.5t55.5 -63t52 -66.5q61 52 121 97.5t118 83.5h164l-1 -25q-38 -35 -94 -89t-110.5 -111t-87.5 -103
h-249z" />
    <glyph glyph-name="ecaron" unicode="&#x11b;" horiz-adv-x="1081" 
d="M515 -20q-127 0 -221.5 48.5t-146 143t-51.5 231.5q0 136 39 265.5t115 233.5t185 165t248 61q170 0 255.5 -76.5t85.5 -202.5q0 -86 -39 -157t-118.5 -122.5t-201 -79.5t-285.5 -28h-45q-1 -15 -2 -30.5t-1 -30.5q0 -111 58 -174.5t169 -63.5q84 0 155 21t159 63v-185
q-81 -39 -164 -60.5t-194 -21.5zM364 632h34q122 0 212 23.5t139 70t49 113.5q0 52 -32.5 81.5t-96.5 29.5q-63 0 -124 -38.5t-109 -110t-72 -169.5zM573 1241q-19 50 -49.5 104.5t-63 106.5t-59.5 92v25h150q26 -22 53.5 -51.5t55.5 -63t52 -66.5q61 52 121 97.5t118 83.5
h164l-1 -25q-38 -35 -94 -89t-110.5 -111t-87.5 -103h-249z" />
    <glyph glyph-name="Gcircumflex" unicode="&#x11c;" horiz-adv-x="1403" 
d="M682 -20q-257 0 -401 145.5t-144 415.5q0 155 36 296.5t105 259.5t169.5 205t229 134.5t282.5 47.5q122 0 221.5 -23.5t194.5 -68.5l-90 -200q-75 38 -157 62t-177 24q-132 0 -237 -57.5t-179.5 -157.5t-113.5 -230t-39 -275q0 -114 36 -198t112 -129.5t193 -45.5
q66 0 119.5 9.5t99.5 22.5l82 373h-284l44 203h516l-158 -735q-96 -34 -204.5 -56t-255.5 -22zM595 1597l1 25q38 36 94 89.5t110 111t86 102.5h249q21 -50 51 -105t63 -106t59 -92v-25h-151q-24 23 -52 52.5t-56 63t-53 65.5q-60 -52 -119.5 -97.5t-116.5 -83.5h-165z" />
    <glyph glyph-name="gcircumflex" unicode="&#x11d;" horiz-adv-x="1086" 
d="M322 -492q-201 0 -313.5 74.5t-112.5 207.5q0 104 70.5 180t223.5 127q-38 21 -57 53t-19 74q0 69 47.5 119.5t143.5 95.5q-65 41 -100 104.5t-35 149.5q1 98 32.5 178t90.5 137q58 57 140 88t182 31q40 0 80 -5.5t79 -16.5h382l-29 -133l-196 -32q16 -28 23.5 -64
t7.5 -78q0 -96 -31.5 -173.5t-89.5 -132.5q-56 -54 -136.5 -82.5t-180.5 -29.5q-28 0 -51 2.5t-41 6.5q-57 -19 -85 -46.5t-28 -59.5q0 -26 16 -42q15 -14 42 -21.5t67 -12.5l128 -16q114 -14 186.5 -47t107 -88.5t34.5 -137.5q0 -108 -45.5 -188t-132.5 -132
q-73 -44 -174 -67t-226 -23zM334 -329q87 0 153.5 15t110.5 44q42 27 64 65t22 87q0 22 -6.5 38.5t-19.5 29.5q-24 24 -66 37t-105 20l-148 16q-77 -14 -129.5 -43t-79 -70.5t-26.5 -93.5q0 -70 58 -107.5t172 -37.5zM528 531q68 0 117 39.5t75.5 106t26.5 148.5
q0 38 -9.5 66t-28.5 46q-17 18 -42.5 27t-58.5 9q-51 0 -91.5 -22.5t-69 -62t-44 -92.5t-15.5 -114q0 -30 6.5 -54t19.5 -42q34 -55 114 -55zM334 1241l1 25q38 36 94 89.5t110 111t86 102.5h249q21 -50 51 -105t63 -106t59 -92v-25h-151q-24 23 -52 52.5t-56 63t-53 65.5
q-60 -52 -119.5 -97.5t-116.5 -83.5h-165z" />
    <glyph glyph-name="Gbreve" unicode="&#x11e;" horiz-adv-x="1403" 
d="M682 -20q-257 0 -401 145.5t-144 415.5q0 155 36 296.5t105 259.5t169.5 205t229 134.5t282.5 47.5q122 0 221.5 -23.5t194.5 -68.5l-90 -200q-75 38 -157 62t-177 24q-132 0 -237 -57.5t-179.5 -157.5t-113.5 -230t-39 -275q0 -114 36 -198t112 -129.5t193 -45.5
q66 0 119.5 9.5t99.5 22.5l82 373h-284l44 203h516l-158 -735q-96 -34 -204.5 -56t-255.5 -22zM962 1597q-96 0 -159.5 33t-95 89.5t-31.5 126.5q0 16 1 29.5t3 25.5h137q0 -41 15.5 -69.5t50.5 -43.5t92 -15q86 0 135 31.5t65 96.5h147q-30 -152 -119 -228t-241 -76z" />
    <glyph glyph-name="gbreve" unicode="&#x11f;" horiz-adv-x="1086" 
d="M322 -492q-201 0 -313.5 74.5t-112.5 207.5q0 104 70.5 180t223.5 127q-38 21 -57 53t-19 74q0 69 47.5 119.5t143.5 95.5q-65 41 -100 104.5t-35 149.5q1 98 32.5 178t90.5 137q58 57 140 88t182 31q40 0 80 -5.5t79 -16.5h382l-29 -133l-196 -32q16 -28 23.5 -64
t7.5 -78q0 -96 -31.5 -173.5t-89.5 -132.5q-56 -54 -136.5 -82.5t-180.5 -29.5q-28 0 -51 2.5t-41 6.5q-57 -19 -85 -46.5t-28 -59.5q0 -26 16 -42q15 -14 42 -21.5t67 -12.5l128 -16q114 -14 186.5 -47t107 -88.5t34.5 -137.5q0 -108 -45.5 -188t-132.5 -132
q-73 -44 -174 -67t-226 -23zM334 -329q87 0 153.5 15t110.5 44q42 27 64 65t22 87q0 22 -6.5 38.5t-19.5 29.5q-24 24 -66 37t-105 20l-148 16q-77 -14 -129.5 -43t-79 -70.5t-26.5 -93.5q0 -70 58 -107.5t172 -37.5zM528 531q68 0 117 39.5t75.5 106t26.5 148.5
q0 38 -9.5 66t-28.5 46q-17 18 -42.5 27t-58.5 9q-51 0 -91.5 -22.5t-69 -62t-44 -92.5t-15.5 -114q0 -30 6.5 -54t19.5 -42q34 -55 114 -55zM653 1241q-96 0 -159.5 33t-95 89.5t-31.5 126.5q0 16 1 29.5t3 25.5h137q0 -41 15.5 -69.5t50.5 -43.5t92 -15q86 0 135 31.5
t65 96.5h147q-30 -152 -119 -228t-241 -76z" />
    <glyph glyph-name="Gdot" unicode="&#x120;" horiz-adv-x="1403" 
d="M682 -20q-257 0 -401 145.5t-144 415.5q0 155 36 296.5t105 259.5t169.5 205t229 134.5t282.5 47.5q122 0 221.5 -23.5t194.5 -68.5l-90 -200q-75 38 -157 62t-177 24q-132 0 -237 -57.5t-179.5 -157.5t-113.5 -230t-39 -275q0 -114 36 -198t112 -129.5t193 -45.5
q66 0 119.5 9.5t99.5 22.5l82 373h-284l44 203h516l-158 -735q-96 -34 -204.5 -56t-255.5 -22zM983 1629q-52 0 -87.5 25.5t-35.5 80.5q0 68 39.5 109.5t109.5 41.5q35 0 61.5 -10.5t42 -33.5t15.5 -59q0 -70 -39 -112t-106 -42z" />
    <glyph glyph-name="gdot" unicode="&#x121;" horiz-adv-x="1086" 
d="M322 -492q-201 0 -313.5 74.5t-112.5 207.5q0 104 70.5 180t223.5 127q-38 21 -57 53t-19 74q0 69 47.5 119.5t143.5 95.5q-65 41 -100 104.5t-35 149.5q1 98 32.5 178t90.5 137q58 57 140 88t182 31q40 0 80 -5.5t79 -16.5h382l-29 -133l-196 -32q16 -28 23.5 -64
t7.5 -78q0 -96 -31.5 -173.5t-89.5 -132.5q-56 -54 -136.5 -82.5t-180.5 -29.5q-28 0 -51 2.5t-41 6.5q-57 -19 -85 -46.5t-28 -59.5q0 -26 16 -42q15 -14 42 -21.5t67 -12.5l128 -16q114 -14 186.5 -47t107 -88.5t34.5 -137.5q0 -108 -45.5 -188t-132.5 -132
q-73 -44 -174 -67t-226 -23zM334 -329q87 0 153.5 15t110.5 44q42 27 64 65t22 87q0 22 -6.5 38.5t-19.5 29.5q-24 24 -66 37t-105 20l-148 16q-77 -14 -129.5 -43t-79 -70.5t-26.5 -93.5q0 -70 58 -107.5t172 -37.5zM528 531q68 0 117 39.5t75.5 106t26.5 148.5
q0 38 -9.5 66t-28.5 46q-17 18 -42.5 27t-58.5 9q-51 0 -91.5 -22.5t-69 -62t-44 -92.5t-15.5 -114q0 -30 6.5 -54t19.5 -42q34 -55 114 -55zM680 1273q-52 0 -87.5 25.5t-35.5 80.5q0 68 39.5 109.5t109.5 41.5q35 0 61.5 -10.5t42 -33.5t15.5 -59q0 -70 -39 -112t-106 -42
z" />
    <glyph glyph-name="uni0122" unicode="&#x122;" horiz-adv-x="1403" 
d="M682 -20q-257 0 -401 145.5t-144 415.5q0 155 36 296.5t105 259.5t169.5 205t229 134.5t282.5 47.5q122 0 221.5 -23.5t194.5 -68.5l-90 -200q-75 38 -157 62t-177 24q-132 0 -237 -57.5t-179.5 -157.5t-113.5 -230t-39 -275q0 -114 36 -198t112 -129.5t193 -45.5
q66 0 119.5 9.5t99.5 22.5l82 373h-284l44 203h516l-158 -735q-96 -34 -204.5 -56t-255.5 -22zM439 -453v27q21 37 47 90.5t50.5 110t39.5 100.5h219v-20q-19 -40 -54 -94t-78.5 -110t-88.5 -104h-135z" />
    <glyph glyph-name="uni0123" unicode="&#x123;" horiz-adv-x="1086" 
d="M541 1241v21q19 39 54 93t79 111t88 103h136v-27q-20 -36 -46.5 -89.5t-50.5 -110t-39 -101.5h-221zM322 -492q-201 0 -313.5 74.5t-112.5 207.5q0 104 70.5 180t223.5 127q-38 21 -57 53t-19 74q0 69 47.5 119.5t143.5 95.5q-65 41 -100 104.5t-35 149.5q1 98 32.5 178
t90.5 137q58 57 140 88t182 31q40 0 80 -5.5t79 -16.5h382l-29 -133l-196 -32q16 -28 23.5 -64t7.5 -78q0 -96 -31.5 -173.5t-89.5 -132.5q-56 -54 -136.5 -82.5t-180.5 -29.5q-28 0 -51 2.5t-41 6.5q-57 -19 -85 -46.5t-28 -59.5q0 -26 16 -42q15 -14 42 -21.5t67 -12.5
l128 -16q114 -14 186.5 -47t107 -88.5t34.5 -137.5q0 -108 -45.5 -188t-132.5 -132q-73 -44 -174 -67t-226 -23zM334 -329q87 0 153.5 15t110.5 44q42 27 64 65t22 87q0 22 -6.5 38.5t-19.5 29.5q-24 24 -66 37t-105 20l-148 16q-77 -14 -129.5 -43t-79 -70.5t-26.5 -93.5
q0 -70 58 -107.5t172 -37.5zM528 531q68 0 117 39.5t75.5 106t26.5 148.5q0 38 -9.5 66t-28.5 46q-17 18 -42.5 27t-58.5 9q-51 0 -91.5 -22.5t-69 -62t-44 -92.5t-15.5 -114q0 -30 6.5 -54t19.5 -42q34 -55 114 -55z" />
    <glyph glyph-name="Hcircumflex" unicode="&#x124;" horiz-adv-x="1414" 
d="M71 0l309 1462h237l-127 -598h570l126 598h236l-309 -1462h-237l140 660h-569l-140 -660h-236zM548 1597l1 25q38 36 94 89.5t110 111t86 102.5h249q21 -50 51 -105t63 -106t59 -92v-25h-151q-24 23 -52 52.5t-56 63t-53 65.5q-60 -52 -119.5 -97.5t-116.5 -83.5h-165z
" />
    <glyph glyph-name="hcircumflex" unicode="&#x125;" horiz-adv-x="1209" 
d="M48 0l330 1556h233l-73 -337q-8 -44 -21.5 -96t-28 -103t-27.5 -94h9q40 52 90.5 98t114 74.5t141.5 28.5q91 0 154 -35.5t96 -102t33 -162.5q0 -38 -6 -81.5t-16 -90.5l-139 -655h-234l142 672q9 39 13 70t4 56q0 68 -32 103t-99 35q-71 0 -140 -54.5t-124 -158
t-86 -250.5l-100 -473h-234zM151 1691l1 25q38 36 94 89.5t110 111t86 102.5h249q21 -50 51 -105t63 -106t59 -92v-25h-151q-24 23 -52 52.5t-56 63t-53 65.5q-60 -52 -119.5 -97.5t-116.5 -83.5h-165z" />
    <glyph glyph-name="Hbar" unicode="&#x126;" horiz-adv-x="1414" 
d="M70 0l226 1072h-182l35 169h183l47 221h237l-48 -221h569l48 221h238l-47 -221h183l-34 -169h-186l-225 -1072h-239l140 660h-569l-140 -660h-236zM489 864h569l44 208h-569z" />
    <glyph glyph-name="hbar" unicode="&#x127;" horiz-adv-x="1209" 
d="M48 0l260 1220h-158l36 162h154l38 174h233l-37 -174h329l-35 -162h-328q-16 -73 -32.5 -136.5t-30 -113l-22.5 -82.5h9q39 52 89 98t113.5 75t141.5 29q92 0 155 -36t95.5 -103.5t32.5 -162.5q0 -38 -6 -81t-17 -92l-130 -615h-234l135 633q9 39 13 70t4 56
q0 69 -32 104.5t-99 35.5q-71 0 -140 -55t-124.5 -159t-87.5 -250l-91 -435h-234z" />
    <glyph glyph-name="Itilde" unicode="&#x128;" horiz-adv-x="605" 
d="M69 0l311 1462h236l-312 -1462h-235zM164 1598q19 95 55 157.5t86.5 93.5t114.5 31q47 0 86.5 -16.5t73 -38.5t63.5 -38.5t59 -16.5q39 0 64 26t49 86h137q-22 -96 -59 -159t-87.5 -93.5t-114.5 -30.5q-45 0 -82.5 17t-70.5 39t-64.5 38.5t-64.5 16.5q-37 0 -62.5 -28
t-44.5 -84h-138z" />
    <glyph glyph-name="itilde" unicode="&#x129;" horiz-adv-x="563" 
d="M48 0l235 1107h234l-235 -1107h-234zM57 1242q19 95 55 157.5t86.5 93.5t114.5 31q47 0 86.5 -16.5t73 -38.5t63.5 -38.5t59 -16.5q39 0 64 26t49 86h137q-22 -96 -59 -159t-87.5 -93.5t-114.5 -30.5q-45 0 -82.5 17t-70.5 39t-64.5 38.5t-64.5 16.5q-37 0 -62.5 -28
t-44.5 -84h-138z" />
    <glyph glyph-name="Imacron" unicode="&#x12a;" horiz-adv-x="605" 
d="M69 0l311 1462h236l-312 -1462h-235zM236 1598l36 173h582l-36 -173h-582z" />
    <glyph glyph-name="imacron" unicode="&#x12b;" horiz-adv-x="563" 
d="M48 0l235 1107h234l-235 -1107h-234zM129 1242l36 173h582l-36 -173h-582z" />
    <glyph glyph-name="Ibreve" unicode="&#x12c;" horiz-adv-x="605" 
d="M69 0l311 1462h236l-312 -1462h-235zM522 1597q-96 0 -159.5 33t-95 89.5t-31.5 126.5q0 16 1 29.5t3 25.5h137q0 -41 15.5 -69.5t50.5 -43.5t92 -15q86 0 135 31.5t65 96.5h147q-30 -152 -119 -228t-241 -76z" />
    <glyph glyph-name="ibreve" unicode="&#x12d;" horiz-adv-x="563" 
d="M48 0l235 1107h234l-235 -1107h-234zM423 1241q-96 0 -159.5 33t-95 89.5t-31.5 126.5q0 16 1 29.5t3 25.5h137q0 -41 15.5 -69.5t50.5 -43.5t92 -15q86 0 135 31.5t65 96.5h147q-30 -152 -119 -228t-241 -76z" />
    <glyph glyph-name="Iogonek" unicode="&#x12e;" horiz-adv-x="605" 
d="M69 0l311 1462h236l-312 -1462h-235zM129 -468q-89 0 -144 46.5t-55 131.5q0 66 28.5 117t77.5 93.5t111 81.5l156 -2q-44 -35 -89 -74.5t-74.5 -84.5t-29.5 -97q0 -32 17.5 -48.5t47.5 -16.5q25 0 47.5 4t45.5 10v-141q-31 -9 -65 -14.5t-74 -5.5z" />
    <glyph glyph-name="iogonek" unicode="&#x12f;" horiz-adv-x="563" 
d="M48 0l235 1107h234l-235 -1107h-234zM452 1273q-52 0 -87 25.5t-35 80.5q0 46 17.5 80t51 52.5t80.5 18.5q52 0 85 -24.5t33 -78.5q0 -70 -39 -112t-106 -42zM122 -468q-89 0 -144 46.5t-55 131.5q0 66 28.5 117t77.5 93.5t111 81.5l156 -2q-44 -35 -89 -74.5
t-74.5 -84.5t-29.5 -97q0 -32 17.5 -48.5t47.5 -16.5q25 0 47.5 4t45.5 10v-141q-31 -9 -65 -14.5t-74 -5.5z" />
    <glyph glyph-name="Idotaccent" unicode="&#x130;" horiz-adv-x="605" 
d="M69 0l311 1462h236l-312 -1462h-235zM550 1629q-52 0 -87.5 25.5t-35.5 80.5q0 68 39.5 109.5t109.5 41.5q35 0 61.5 -10.5t42 -33.5t15.5 -59q0 -70 -39 -112t-106 -42z" />
    <glyph glyph-name="dotlessi" unicode="&#x131;" horiz-adv-x="563" 
d="M48 0l235 1107h234l-235 -1107h-234z" />
    <glyph glyph-name="IJ" unicode="&#x132;" horiz-adv-x="1219" 
d="M69 0l311 1462h236l-312 -1462h-235zM455 -407q-56 0 -98.5 7.5t-73.5 17.5l3 200q33 -8 72 -14t84 -6q65 0 115 26.5t85.5 81.5t53.5 142l301 1414h237l-307 -1445q-33 -151 -95.5 -244.5t-156.5 -136.5t-220 -43z" />
    <glyph glyph-name="ij" unicode="&#x133;" horiz-adv-x="1124" 
d="M48 0l235 1107h234l-235 -1107h-234zM452 1273q-52 0 -87 25.5t-35 80.5q0 46 17.5 80t51 52.5t80.5 18.5q52 0 85 -24.5t33 -78.5q0 -70 -39 -112t-106 -42zM448 -492q-42 0 -82.5 7t-67.5 16v192q29 -11 57.5 -16.5t59.5 -5.5q42 0 75.5 20t58 61.5t38.5 104.5
l258 1220h233l-266 -1251q-21 -101 -63.5 -179.5t-115.5 -123.5t-185 -45zM1013 1273q-51 0 -86 25.5t-35 80.5q0 46 17.5 80t51 52.5t80.5 18.5q52 0 85 -24.5t33 -78.5q0 -70 -39.5 -112t-106.5 -42z" />
    <glyph glyph-name="Jcircumflex" unicode="&#x134;" horiz-adv-x="614" 
d="M-150 -407q-56 0 -98.5 7.5t-73.5 17.5l3 200q33 -8 72 -14t84 -6q65 0 115 26.5t85.5 81.5t53.5 142l301 1414h237l-307 -1445q-33 -151 -95.5 -244.5t-156.5 -136.5t-220 -43zM156 1597l1 25q38 36 94 89.5t110 111t86 102.5h249q21 -50 51 -105t63 -106t59 -92v-25
h-151q-24 23 -52 52.5t-56 63t-53 65.5q-60 -52 -119.5 -97.5t-116.5 -83.5h-165z" />
    <glyph glyph-name="jcircumflex" unicode="&#x135;" horiz-adv-x="563" 
d="M-112 -492q-42 0 -82.5 7t-67.5 16v192q29 -11 57.5 -16.5t59.5 -5.5q42 0 75.5 20t58 61.5t38.5 104.5l258 1220h233l-266 -1251q-21 -101 -63.5 -179.5t-115.5 -123.5t-185 -45zM54 1241l1 25q38 36 94 89.5t110 111t86 102.5h249q21 -50 51 -105t63 -106t59 -92v-25
h-151q-24 23 -52 52.5t-56 63t-53 65.5q-60 -52 -119.5 -97.5t-116.5 -83.5h-165z" />
    <glyph glyph-name="uni0136" unicode="&#x136;" horiz-adv-x="1201" 
d="M70 0l309 1462h237l-154 -713l141 171l500 542h283l-618 -670l322 -792h-262l-253 656l-153 -102l-116 -554h-236zM291 -453v27q21 37 47 90.5t50.5 110t39.5 100.5h219v-20q-19 -40 -54 -94t-78.5 -110t-88.5 -104h-135z" />
    <glyph glyph-name="uni0137" unicode="&#x137;" horiz-adv-x="1082" 
d="M47 0l330 1556h234l-142 -664q-14 -69 -29.5 -127.5t-28.5 -101t-20 -66.5h6l497 510h270l-486 -487l290 -620h-260l-210 471l-139 -101l-77 -370h-235zM236 -453v27q21 37 47 90.5t50.5 110t39.5 100.5h219v-20q-19 -40 -54 -94t-78.5 -110t-88.5 -104h-135z" />
    <glyph glyph-name="kgreenlandic" unicode="&#x138;" horiz-adv-x="1082" 
d="M47 0l234 1107h235l-58 -262q-14 -66 -33.5 -133.5t-35.5 -118.5h6l499 514h270l-486 -487l290 -620h-260l-210 471l-139 -101l-77 -370h-235z" />
    <glyph glyph-name="Lacute" unicode="&#x139;" horiz-adv-x="1022" 
d="M70 0l309 1462h237l-267 -1258h542l-43 -204h-778zM437 1597v25q35 39 76.5 92t81.5 108.5t70 102.5h262v-18q-22 -28 -61.5 -69t-88 -86t-96.5 -85.5t-88 -69.5h-156z" />
    <glyph glyph-name="lacute" unicode="&#x13a;" horiz-adv-x="563" 
d="M47 0l331 1556h233l-330 -1556h-234zM390 1691v25q35 39 76.5 92t81.5 108.5t70 102.5h262v-18q-22 -28 -61.5 -69t-88 -86t-96.5 -85.5t-88 -69.5h-156z" />
    <glyph glyph-name="uni013B" unicode="&#x13b;" horiz-adv-x="1022" 
d="M70 0l309 1462h237l-267 -1258h542l-43 -204h-778zM221 -453v27q21 37 47 90.5t50.5 110t39.5 100.5h219v-20q-19 -40 -54 -94t-78.5 -110t-88.5 -104h-135z" />
    <glyph glyph-name="uni013C" unicode="&#x13c;" horiz-adv-x="563" 
d="M47 0l331 1556h233l-330 -1556h-234zM-76 -453v27q21 37 47 90.5t50.5 110t39.5 100.5h219v-20q-19 -40 -54 -94t-78.5 -110t-88.5 -104h-135z" />
    <glyph glyph-name="Lcaron" unicode="&#x13d;" horiz-adv-x="1022" 
d="M70 0l309 1462h237l-267 -1258h542l-43 -204h-778zM755 1131v25q21 37 47.5 91t51 110.5t39.5 100.5h220v-19q-19 -40 -54.5 -94t-79 -110.5t-88.5 -103.5h-136z" />
    <glyph glyph-name="lcaron" unicode="&#x13e;" horiz-adv-x="670" 
d="M47 0l331 1556h233l-330 -1556h-234zM622 1229v25q21 37 47.5 91t51 110.5t39.5 100.5h220v-19q-19 -40 -54.5 -94t-79 -110.5t-88.5 -103.5h-136z" />
    <glyph glyph-name="Ldot" unicode="&#x13f;" horiz-adv-x="1022" 
d="M70 0l309 1462h237l-267 -1258h542l-43 -204h-778zM814 612q-52 0 -87.5 25.5t-35.5 80.5q0 68 39.5 109.5t109.5 41.5q35 0 61.5 -10.5t42 -33.5t15.5 -59q0 -70 -39 -112t-106 -42z" />
    <glyph glyph-name="ldot" unicode="&#x140;" horiz-adv-x="739" 
d="M47 0l331 1556h233l-330 -1556h-234zM675 593q-52 0 -87.5 25.5t-35.5 80.5q0 68 39.5 109.5t109.5 41.5q35 0 61.5 -10.5t42 -33.5t15.5 -59q0 -70 -39 -112t-106 -42z" />
    <glyph glyph-name="Lslash" unicode="&#x141;" horiz-adv-x="1022" 
d="M70 0l106 497l-86 -48l-81 156l214 119l156 738h237l-126 -591l193 108l82 -155l-323 -180l-93 -440h543l-43 -204h-779z" />
    <glyph glyph-name="lslash" unicode="&#x142;" horiz-adv-x="594" 
d="M60 0l113 531l-88 -51l-80 154l215 123l171 799h231l-138 -654l95 55l79 -154l-222 -126l-144 -677h-232z" />
    <glyph glyph-name="Nacute" unicode="&#x143;" horiz-adv-x="1494" 
d="M69 0l309 1462h267l402 -1150h6q7 46 18 113.5t25 140.5t27 135l162 761h217l-309 -1462h-260l-411 1167h-7q-3 -23 -10 -69.5t-16.5 -106.5t-20.5 -122t-23 -115l-159 -754h-217zM846 1597v25q35 39 76.5 92t81.5 108.5t70 102.5h262v-18q-22 -28 -61.5 -69t-88 -86
t-96.5 -85.5t-88 -69.5h-156z" />
    <glyph glyph-name="nacute" unicode="&#x144;" horiz-adv-x="1209" 
d="M44 0l236 1110h189l-24 -209h6q40 59 93 111.5t120.5 85.5t151.5 33q92 0 156 -36t97 -103t33 -160q0 -41 -6.5 -87.5t-16.5 -90.5l-139 -654h-239l142 673q9 39 13.5 70t4.5 58q0 66 -32.5 99t-96.5 33q-70 0 -138 -54t-123 -157t-87 -249l-100 -473h-240zM620 1241v25
q35 39 76.5 92t81.5 108.5t70 102.5h262v-18q-22 -28 -61.5 -69t-88 -86t-96.5 -85.5t-88 -69.5h-156z" />
    <glyph glyph-name="uni0145" unicode="&#x145;" horiz-adv-x="1494" 
d="M69 0l309 1462h267l402 -1150h6q7 46 18 113.5t25 140.5t27 135l162 761h217l-309 -1462h-260l-411 1167h-7q-3 -23 -10 -69.5t-16.5 -106.5t-20.5 -122t-23 -115l-159 -754h-217zM380 -453v27q21 37 47 90.5t50.5 110t39.5 100.5h219v-20q-19 -40 -54 -94t-78.5 -110
t-88.5 -104h-135z" />
    <glyph glyph-name="uni0146" unicode="&#x146;" horiz-adv-x="1209" 
d="M44 0l236 1110h189l-24 -209h6q40 59 93 111.5t120.5 85.5t151.5 33q92 0 156 -36t97 -103t33 -160q0 -41 -6.5 -87.5t-16.5 -90.5l-139 -654h-239l142 673q9 39 13.5 70t4.5 58q0 66 -32.5 99t-96.5 33q-70 0 -138 -54t-123 -157t-87 -249l-100 -473h-240zM255 -453v27
q21 37 47 90.5t50.5 110t39.5 100.5h219v-20q-19 -40 -54 -94t-78.5 -110t-88.5 -104h-135z" />
    <glyph glyph-name="Ncaron" unicode="&#x147;" horiz-adv-x="1494" 
d="M69 0l309 1462h267l402 -1150h6q7 46 18 113.5t25 140.5t27 135l162 761h217l-309 -1462h-260l-411 1167h-7q-3 -23 -10 -69.5t-16.5 -106.5t-20.5 -122t-23 -115l-159 -754h-217zM850 1597q-19 50 -49.5 104.5t-63 106.5t-59.5 92v25h150q26 -22 53.5 -51.5t55.5 -63
t52 -66.5q61 52 121 97.5t118 83.5h164l-1 -25q-38 -35 -94 -89t-110.5 -111t-87.5 -103h-249z" />
    <glyph glyph-name="ncaron" unicode="&#x148;" horiz-adv-x="1209" 
d="M44 0l236 1110h189l-24 -209h6q40 59 93 111.5t120.5 85.5t151.5 33q92 0 156 -36t97 -103t33 -160q0 -41 -6.5 -87.5t-16.5 -90.5l-139 -654h-239l142 673q9 39 13.5 70t4.5 58q0 66 -32.5 99t-96.5 33q-70 0 -138 -54t-123 -157t-87 -249l-100 -473h-240zM627 1241
q-19 50 -49.5 104.5t-63 106.5t-59.5 92v25h150q26 -22 53.5 -51.5t55.5 -63t52 -66.5q61 52 121 97.5t118 83.5h164l-1 -25q-38 -35 -94 -89t-110.5 -111t-87.5 -103h-249z" />
    <glyph glyph-name="napostrophe" unicode="&#x149;" horiz-adv-x="1391" 
d="M226 0l236 1110h189l-24 -209h6q40 59 93 111.5t120.5 85.5t151.5 33q92 0 156 -36t97 -103t33 -160q0 -41 -6.5 -87.5t-16.5 -90.5l-139 -654h-239l142 673q9 39 13.5 70t4.5 58q0 66 -32.5 99t-96.5 33q-70 0 -138 -54t-123 -157t-87 -249l-100 -473h-240zM72 961
q36 81 72.5 170t70 175t57.5 156h232l8 -22q-32 -72 -75 -154.5t-91.5 -166t-97.5 -158.5h-176z" />
    <glyph glyph-name="Eng" unicode="&#x14a;" horiz-adv-x="1494" 
d="M721 -407q-55 0 -99.5 7t-72.5 18l3 193q34 -9 72.5 -15t81.5 -6q69 0 121 22t88 68.5t55 121.5l-448 1165h-7q-4 -26 -11 -73t-16 -105.5t-20 -120t-23 -114.5l-159 -754h-217l309 1462h254l422 -1098h7q9 50 20 119.5t24.5 144.5t28.5 142l150 692h218l-308 -1461
q-30 -142 -95.5 -232t-161 -133t-216.5 -43z" />
    <glyph glyph-name="eng" unicode="&#x14b;" horiz-adv-x="1209" 
d="M543 -492q-43 0 -82.5 7t-67.5 16v192q29 -11 57 -16.5t59 -5.5q41 0 75 20t58 61.5t37 104.5l167 785q9 39 13.5 70.5t4.5 58.5q0 65 -32.5 100t-99.5 35q-71 0 -139.5 -54.5t-124 -158t-86.5 -250.5l-100 -473h-234l235 1107h182l-24 -209h9q41 59 94 111.5t120.5 85.5
t151.5 33q91 0 154 -35.5t96 -101t33 -159.5q0 -41 -6 -85.5t-16 -91.5l-169 -798q-22 -102 -65 -181t-115.5 -123.5t-184.5 -44.5z" />
    <glyph glyph-name="Omacron" unicode="&#x14c;" horiz-adv-x="1486" 
d="M678 -20q-177 0 -297.5 69.5t-182 196.5t-61.5 297q0 120 21.5 235.5t63.5 220.5t105.5 194t147.5 154.5t188.5 101.5t228.5 36q256 0 392.5 -151t136.5 -410q0 -120 -19.5 -236.5t-60 -222t-101.5 -194t-143.5 -153.5t-187 -101.5t-231.5 -36.5zM692 185q73 0 137 26
t117.5 73.5t96 114.5t72 149t45.5 176.5t16 197.5q0 167 -78.5 263t-223.5 96q-75 0 -140.5 -26.5t-120.5 -76t-97.5 -117t-72.5 -149.5t-45.5 -174.5t-15.5 -192.5q0 -114 36.5 -195t106 -123t167.5 -42zM664 1598l36 173h582l-36 -173h-582z" />
    <glyph glyph-name="omacron" unicode="&#x14d;" horiz-adv-x="1176" 
d="M512 -18q-126 0 -220 52t-145.5 147.5t-51.5 226.5q0 111 23.5 216t69.5 196t115 159.5t160 107t204 38.5q129 0 222 -52t143 -149t50 -232q0 -108 -22.5 -211t-67.5 -193.5t-113.5 -159t-160 -107.5t-206.5 -39zM529 174q56 0 104.5 25.5t87.5 73t66.5 113t42.5 145.5
t15 171q0 61 -18 113.5t-59.5 85t-110.5 32.5q-62 0 -113.5 -29.5t-91 -81.5t-66.5 -119.5t-41 -144t-14 -154.5q0 -111 50.5 -170.5t147.5 -59.5zM410 1242l36 173h582l-36 -173h-582z" />
    <glyph glyph-name="Obreve" unicode="&#x14e;" horiz-adv-x="1486" 
d="M678 -20q-177 0 -297.5 69.5t-182 196.5t-61.5 297q0 120 21.5 235.5t63.5 220.5t105.5 194t147.5 154.5t188.5 101.5t228.5 36q256 0 392.5 -151t136.5 -410q0 -120 -19.5 -236.5t-60 -222t-101.5 -194t-143.5 -153.5t-187 -101.5t-231.5 -36.5zM692 185q73 0 137 26
t117.5 73.5t96 114.5t72 149t45.5 176.5t16 197.5q0 167 -78.5 263t-223.5 96q-75 0 -140.5 -26.5t-120.5 -76t-97.5 -117t-72.5 -149.5t-45.5 -174.5t-15.5 -192.5q0 -114 36.5 -195t106 -123t167.5 -42zM956 1597q-96 0 -159.5 33t-95 89.5t-31.5 126.5q0 16 1 29.5
t3 25.5h137q0 -41 15.5 -69.5t50.5 -43.5t92 -15q86 0 135 31.5t65 96.5h147q-30 -152 -119 -228t-241 -76z" />
    <glyph glyph-name="obreve" unicode="&#x14f;" horiz-adv-x="1176" 
d="M512 -18q-126 0 -220 52t-145.5 147.5t-51.5 226.5q0 111 23.5 216t69.5 196t115 159.5t160 107t204 38.5q129 0 222 -52t143 -149t50 -232q0 -108 -22.5 -211t-67.5 -193.5t-113.5 -159t-160 -107.5t-206.5 -39zM529 174q56 0 104.5 25.5t87.5 73t66.5 113t42.5 145.5
t15 171q0 61 -18 113.5t-59.5 85t-110.5 32.5q-62 0 -113.5 -29.5t-91 -81.5t-66.5 -119.5t-41 -144t-14 -154.5q0 -111 50.5 -170.5t147.5 -59.5zM704 1241q-96 0 -159.5 33t-95 89.5t-31.5 126.5q0 16 1 29.5t3 25.5h137q0 -41 15.5 -69.5t50.5 -43.5t92 -15
q86 0 135 31.5t65 96.5h147q-30 -152 -119 -228t-241 -76z" />
    <glyph glyph-name="Ohungarumlaut" unicode="&#x150;" horiz-adv-x="1486" 
d="M678 -20q-177 0 -297.5 69.5t-182 196.5t-61.5 297q0 120 21.5 235.5t63.5 220.5t105.5 194t147.5 154.5t188.5 101.5t228.5 36q256 0 392.5 -151t136.5 -410q0 -120 -19.5 -236.5t-60 -222t-101.5 -194t-143.5 -153.5t-187 -101.5t-231.5 -36.5zM692 185q73 0 137 26
t117.5 73.5t96 114.5t72 149t45.5 176.5t16 197.5q0 167 -78.5 263t-223.5 96q-75 0 -140.5 -26.5t-120.5 -76t-97.5 -117t-72.5 -149.5t-45.5 -174.5t-15.5 -192.5q0 -114 36.5 -195t106 -123t167.5 -42zM1053 1597v25q35 39 77.5 92t84 108.5t71.5 102.5h238v-18
q-22 -28 -62.5 -69t-89.5 -86t-98 -85.5t-88 -69.5h-133zM682 1597v25q35 39 78 92t84 108.5t71 102.5h238v-18q-21 -28 -61.5 -69t-89.5 -86t-98.5 -85.5t-88.5 -69.5h-133z" />
    <glyph glyph-name="ohungarumlaut" unicode="&#x151;" horiz-adv-x="1176" 
d="M512 -18q-126 0 -220 52t-145.5 147.5t-51.5 226.5q0 111 23.5 216t69.5 196t115 159.5t160 107t204 38.5q129 0 222 -52t143 -149t50 -232q0 -108 -22.5 -211t-67.5 -193.5t-113.5 -159t-160 -107.5t-206.5 -39zM529 174q56 0 104.5 25.5t87.5 73t66.5 113t42.5 145.5
t15 171q0 61 -18 113.5t-59.5 85t-110.5 32.5q-62 0 -113.5 -29.5t-91 -81.5t-66.5 -119.5t-41 -144t-14 -154.5q0 -111 50.5 -170.5t147.5 -59.5zM800 1241v25q35 39 77.5 92t84 108.5t71.5 102.5h238v-18q-22 -28 -62.5 -69t-89.5 -86t-98 -85.5t-88 -69.5h-133zM429 1241
v25q35 39 78 92t84 108.5t71 102.5h238v-18q-21 -28 -61.5 -69t-89.5 -86t-98.5 -85.5t-88.5 -69.5h-133z" />
    <glyph glyph-name="OE" unicode="&#x152;" horiz-adv-x="1805" 
d="M678 -19q-177 0 -297.5 69.5t-182 196t-61.5 296.5q0 143 30.5 280.5t92 257t152 210.5t211 142.5t269.5 51.5q74 0 125.5 -4.5t96.5 -18.5h766l-42 -202h-544l-85 -397h508l-43 -201h-507l-97 -459h544l-43 -203h-725q-38 -8 -80.5 -13.5t-87.5 -5.5zM692 186q37 0 73 6
t69 18l220 1040q-35 16 -81 23.5t-99 7.5q-90 0 -166.5 -38t-136.5 -106.5t-102.5 -161t-64.5 -202t-22 -228.5q0 -114 36.5 -194.5t106 -122.5t167.5 -42z" />
    <glyph glyph-name="oe" unicode="&#x153;" horiz-adv-x="1793" 
d="M497 -18q-183 0 -292.5 114t-109.5 314q0 111 23 216t68 195.5t113 159t159 106.5t205 38q128 0 209 -54t124 -143q72 93 174 146.5t230 53.5q159 0 247 -74t88 -205q0 -85 -38.5 -156.5t-117.5 -123t-199.5 -79.5t-284.5 -28h-49q-1 -15 -2 -30.5t-1 -30.5
q0 -110 58 -174t171 -64q82 0 152.5 22t158.5 62v-186q-83 -40 -167 -60.5t-189 -20.5q-79 0 -148 21t-121.5 62.5t-83.5 104.5q-63 -85 -155.5 -135.5t-221.5 -50.5zM522 174q61 0 110.5 27t87.5 76.5t63.5 115.5t38.5 144.5t13 164.5q0 102 -45 166.5t-143 64.5
q-61 0 -111 -29.5t-88 -81t-64 -118t-39.5 -141.5t-13.5 -152q0 -115 49.5 -176t141.5 -61zM1072 632h37q123 0 212.5 24t138.5 71t49 115q0 49 -30.5 78.5t-88.5 29.5q-68 0 -132 -38t-113 -109t-73 -171z" />
    <glyph glyph-name="Racute" unicode="&#x154;" horiz-adv-x="1209" 
d="M70 0l309 1462h339q222 0 342 -93.5t120 -289.5q0 -112 -39.5 -200t-116.5 -149.5t-190 -95.5l251 -634h-258l-210 586h-187l-124 -586h-236zM472 784h127q83 0 146.5 19t106 54.5t64 88t21.5 118.5q0 105 -60 151.5t-184 46.5h-119zM693 1597v25q35 39 76.5 92
t81.5 108.5t70 102.5h262v-18q-22 -28 -61.5 -69t-88 -86t-96.5 -85.5t-88 -69.5h-156z" />
    <glyph glyph-name="racute" unicode="&#x155;" horiz-adv-x="836" 
d="M48 0l235 1107h183l-24 -209h11q43 64 93.5 116t112.5 83t138 31q27 0 56.5 -3.5t51.5 -9.5l-51 -220q-22 6 -48 10t-55 4q-66 0 -124 -31t-105 -86t-81 -128.5t-53 -159.5l-106 -504h-234zM484 1241v25q35 39 76.5 92t81.5 108.5t70 102.5h262v-18q-22 -28 -61.5 -69
t-88 -86t-96.5 -85.5t-88 -69.5h-156z" />
    <glyph glyph-name="uni0156" unicode="&#x156;" horiz-adv-x="1209" 
d="M70 0l309 1462h339q222 0 342 -93.5t120 -289.5q0 -112 -39.5 -200t-116.5 -149.5t-190 -95.5l251 -634h-258l-210 586h-187l-124 -586h-236zM472 784h127q83 0 146.5 19t106 54.5t64 88t21.5 118.5q0 105 -60 151.5t-184 46.5h-119zM280 -453v27q21 37 47 90.5t50.5 110
t39.5 100.5h219v-20q-19 -40 -54 -94t-78.5 -110t-88.5 -104h-135z" />
    <glyph glyph-name="uni0157" unicode="&#x157;" horiz-adv-x="836" 
d="M48 0l235 1107h183l-24 -209h11q43 64 93.5 116t112.5 83t138 31q27 0 56.5 -3.5t51.5 -9.5l-51 -220q-22 6 -48 10t-55 4q-66 0 -124 -31t-105 -86t-81 -128.5t-53 -159.5l-106 -504h-234zM-67 -453v27q21 37 47 90.5t50.5 110t39.5 100.5h219v-20q-19 -40 -54 -94
t-78.5 -110t-88.5 -104h-135z" />
    <glyph glyph-name="Rcaron" unicode="&#x158;" horiz-adv-x="1209" 
d="M70 0l309 1462h339q222 0 342 -93.5t120 -289.5q0 -112 -39.5 -200t-116.5 -149.5t-190 -95.5l251 -634h-258l-210 586h-187l-124 -586h-236zM472 784h127q83 0 146.5 19t106 54.5t64 88t21.5 118.5q0 105 -60 151.5t-184 46.5h-119zM699 1597q-19 50 -49.5 104.5
t-63 106.5t-59.5 92v25h150q26 -22 53.5 -51.5t55.5 -63t52 -66.5q61 52 121 97.5t118 83.5h164l-1 -25q-38 -35 -94 -89t-110.5 -111t-87.5 -103h-249z" />
    <glyph glyph-name="rcaron" unicode="&#x159;" horiz-adv-x="836" 
d="M48 0l235 1107h183l-24 -209h11q43 64 93.5 116t112.5 83t138 31q27 0 56.5 -3.5t51.5 -9.5l-51 -220q-22 6 -48 10t-55 4q-66 0 -124 -31t-105 -86t-81 -128.5t-53 -159.5l-106 -504h-234zM491 1241q-19 50 -49.5 104.5t-63 106.5t-59.5 92v25h150q26 -22 53.5 -51.5
t55.5 -63t52 -66.5q61 52 121 97.5t118 83.5h164l-1 -25q-38 -35 -94 -89t-110.5 -111t-87.5 -103h-249z" />
    <glyph glyph-name="Sacute" unicode="&#x15a;" horiz-adv-x="1059" 
d="M390 -20q-110 0 -196.5 20t-153.5 58v220q77 -41 163.5 -68.5t188.5 -27.5q60 0 113 12.5t94 39.5t64 68.5t23 98.5q0 58 -24 100t-71 79.5t-118 81.5q-68 44 -127 97t-95 123.5t-36 167.5q0 100 36.5 180t103 136.5t156 86.5t194.5 30q114 0 205 -23.5t176 -68.5
l-87 -188q-67 33 -141.5 54.5t-152.5 21.5q-52 0 -96.5 -14t-77.5 -41t-51.5 -66.5t-18.5 -90.5q0 -58 23 -98t67 -73.5t107 -72.5q85 -53 146 -109t93 -125t32 -163q0 -113 -40.5 -196.5t-114 -139t-171.5 -83t-213 -27.5zM599 1597v25q35 39 76.5 92t81.5 108.5t70 102.5
h262v-18q-22 -28 -61.5 -69t-88 -86t-96.5 -85.5t-88 -69.5h-156z" />
    <glyph glyph-name="sacute" unicode="&#x15b;" horiz-adv-x="926" 
d="M339 -20q-104 0 -181.5 17.5t-139.5 50.5v201q64 -38 144.5 -63.5t165.5 -25.5q66 0 115 18t76.5 51.5t27.5 81.5q0 35 -16 62t-55 55t-108 67q-73 41 -123.5 83.5t-77 94.5t-26.5 122q0 105 48.5 179.5t138 114t211.5 39.5q98 0 185 -22.5t161 -62.5l-77 -174
q-55 31 -122 53.5t-144 22.5q-71 0 -118.5 -33t-47.5 -94q0 -32 15.5 -57.5t52.5 -51.5t101 -60q69 -38 123 -80t85 -96.5t31 -131.5q0 -117 -54.5 -197.5t-154.5 -122t-236 -41.5zM449 1241v25q35 39 76.5 92t81.5 108.5t70 102.5h262v-18q-22 -28 -61.5 -69t-88 -86
t-96.5 -85.5t-88 -69.5h-156z" />
    <glyph glyph-name="Scircumflex" unicode="&#x15c;" horiz-adv-x="1059" 
d="M390 -20q-110 0 -196.5 20t-153.5 58v220q77 -41 163.5 -68.5t188.5 -27.5q60 0 113 12.5t94 39.5t64 68.5t23 98.5q0 58 -24 100t-71 79.5t-118 81.5q-68 44 -127 97t-95 123.5t-36 167.5q0 100 36.5 180t103 136.5t156 86.5t194.5 30q114 0 205 -23.5t176 -68.5
l-87 -188q-67 33 -141.5 54.5t-152.5 21.5q-52 0 -96.5 -14t-77.5 -41t-51.5 -66.5t-18.5 -90.5q0 -58 23 -98t67 -73.5t107 -72.5q85 -53 146 -109t93 -125t32 -163q0 -113 -40.5 -196.5t-114 -139t-171.5 -83t-213 -27.5zM361 1597l1 25q38 36 94 89.5t110 111t86 102.5
h249q21 -50 51 -105t63 -106t59 -92v-25h-151q-24 23 -52 52.5t-56 63t-53 65.5q-60 -52 -119.5 -97.5t-116.5 -83.5h-165z" />
    <glyph glyph-name="scircumflex" unicode="&#x15d;" horiz-adv-x="926" 
d="M339 -20q-104 0 -181.5 17.5t-139.5 50.5v201q64 -38 144.5 -63.5t165.5 -25.5q66 0 115 18t76.5 51.5t27.5 81.5q0 35 -16 62t-55 55t-108 67q-73 41 -123.5 83.5t-77 94.5t-26.5 122q0 105 48.5 179.5t138 114t211.5 39.5q98 0 185 -22.5t161 -62.5l-77 -174
q-55 31 -122 53.5t-144 22.5q-71 0 -118.5 -33t-47.5 -94q0 -32 15.5 -57.5t52.5 -51.5t101 -60q69 -38 123 -80t85 -96.5t31 -131.5q0 -117 -54.5 -197.5t-154.5 -122t-236 -41.5zM211 1241l1 25q38 36 94 89.5t110 111t86 102.5h249q21 -50 51 -105t63 -106t59 -92v-25
h-151q-24 23 -52 52.5t-56 63t-53 65.5q-60 -52 -119.5 -97.5t-116.5 -83.5h-165z" />
    <glyph glyph-name="Scedilla" unicode="&#x15e;" horiz-adv-x="1059" 
d="M390 -20q-110 0 -196.5 20t-153.5 58v220q77 -41 163.5 -68.5t188.5 -27.5q60 0 113 12.5t94 39.5t64 68.5t23 98.5q0 58 -24 100t-71 79.5t-118 81.5q-68 44 -127 97t-95 123.5t-36 167.5q0 100 36.5 180t103 136.5t156 86.5t194.5 30q114 0 205 -23.5t176 -68.5
l-87 -188q-67 33 -141.5 54.5t-152.5 21.5q-52 0 -96.5 -14t-77.5 -41t-51.5 -66.5t-18.5 -90.5q0 -58 23 -98t67 -73.5t107 -72.5q85 -53 146 -109t93 -125t32 -163q0 -113 -40.5 -196.5t-114 -139t-171.5 -83t-213 -27.5zM276 -492q-38 0 -70.5 6t-52.5 11v134
q21 -5 48.5 -10t52.5 -5q45 0 75 11t46 33t16 54q0 39 -35 61.5t-107 30.5l98 166h146l-50 -95q55 -16 96 -54.5t41 -112.5q0 -65 -33.5 -117t-101 -82.5t-169.5 -30.5z" />
    <glyph glyph-name="scedilla" unicode="&#x15f;" horiz-adv-x="926" 
d="M339 -20q-104 0 -181.5 17.5t-139.5 50.5v201q64 -38 144.5 -63.5t165.5 -25.5q66 0 115 18t76.5 51.5t27.5 81.5q0 35 -16 62t-55 55t-108 67q-73 41 -123.5 83.5t-77 94.5t-26.5 122q0 105 48.5 179.5t138 114t211.5 39.5q98 0 185 -22.5t161 -62.5l-77 -174
q-55 31 -122 53.5t-144 22.5q-71 0 -118.5 -33t-47.5 -94q0 -32 15.5 -57.5t52.5 -51.5t101 -60q69 -38 123 -80t85 -96.5t31 -131.5q0 -117 -54.5 -197.5t-154.5 -122t-236 -41.5zM216 -492q-38 0 -70.5 6t-52.5 11v134q21 -5 48.5 -10t52.5 -5q45 0 75 11t46 33t16 54
q0 39 -35 61.5t-107 30.5l98 166h146l-50 -95q55 -16 96 -54.5t41 -112.5q0 -65 -33.5 -117t-101 -82.5t-169.5 -30.5z" />
    <glyph glyph-name="Scaron" unicode="&#x160;" horiz-adv-x="1059" 
d="M390 -20q-110 0 -196.5 20t-153.5 58v220q77 -41 163.5 -68.5t188.5 -27.5q60 0 113 12.5t94 39.5t64 68.5t23 98.5q0 58 -24 100t-71 79.5t-118 81.5q-68 44 -127 97t-95 123.5t-36 167.5q0 100 36.5 180t103 136.5t156 86.5t194.5 30q114 0 205 -23.5t176 -68.5
l-87 -188q-67 33 -141.5 54.5t-152.5 21.5q-52 0 -96.5 -14t-77.5 -41t-51.5 -66.5t-18.5 -90.5q0 -58 23 -98t67 -73.5t107 -72.5q85 -53 146 -109t93 -125t32 -163q0 -113 -40.5 -196.5t-114 -139t-171.5 -83t-213 -27.5zM606 1597q-19 50 -49.5 104.5t-63 106.5t-59.5 92
v25h150q26 -22 53.5 -51.5t55.5 -63t52 -66.5q61 52 121 97.5t118 83.5h164l-1 -25q-38 -35 -94 -89t-110.5 -111t-87.5 -103h-249z" />
    <glyph glyph-name="scaron" unicode="&#x161;" horiz-adv-x="926" 
d="M339 -20q-104 0 -181.5 17.5t-139.5 50.5v201q64 -38 144.5 -63.5t165.5 -25.5q66 0 115 18t76.5 51.5t27.5 81.5q0 35 -16 62t-55 55t-108 67q-73 41 -123.5 83.5t-77 94.5t-26.5 122q0 105 48.5 179.5t138 114t211.5 39.5q98 0 185 -22.5t161 -62.5l-77 -174
q-55 31 -122 53.5t-144 22.5q-71 0 -118.5 -33t-47.5 -94q0 -32 15.5 -57.5t52.5 -51.5t101 -60q69 -38 123 -80t85 -96.5t31 -131.5q0 -117 -54.5 -197.5t-154.5 -122t-236 -41.5zM456 1241q-19 50 -49.5 104.5t-63 106.5t-59.5 92v25h150q26 -22 53.5 -51.5t55.5 -63
t52 -66.5q61 52 121 97.5t118 83.5h164l-1 -25q-38 -35 -94 -89t-110.5 -111t-87.5 -103h-249z" />
    <glyph glyph-name="uni0162" unicode="&#x162;" horiz-adv-x="1055" 
d="M291 0l266 1258h-380l43 204h998l-42 -204h-381l-266 -1258h-238zM282 -492q-38 0 -70.5 6t-52.5 11v134q21 -5 48.5 -10t52.5 -5q45 0 75 11t46 33t16 54q0 39 -35 61.5t-107 30.5l98 166h146l-50 -95q55 -16 96 -54.5t41 -112.5q0 -65 -33.5 -117t-101 -82.5
t-169.5 -30.5z" />
    <glyph glyph-name="uni0163" unicode="&#x163;" horiz-adv-x="758" 
d="M390 -20q-121 0 -196.5 54.5t-75.5 191.5q0 27 3.5 59.5t10.5 67.5l122 576h-160l22 112l189 77l126 234h147l-52 -245h282l-38 -178h-281l-123 -577q-5 -21 -8.5 -44.5t-3.5 -42.5q0 -45 25 -70t76 -25q39 0 75 8t79 23v-177q-37 -17 -96 -30.5t-123 -13.5zM203 -492
q-38 0 -70.5 6t-52.5 11v134q21 -5 48.5 -10t52.5 -5q45 0 75 11t46 33t16 54q0 39 -35 61.5t-107 30.5l98 166h146l-50 -95q55 -16 96 -54.5t41 -112.5q0 -65 -33.5 -117t-101 -82.5t-169.5 -30.5z" />
    <glyph glyph-name="Tcaron" unicode="&#x164;" horiz-adv-x="1055" 
d="M291 0l266 1258h-380l43 204h998l-42 -204h-381l-266 -1258h-238zM623 1597q-19 50 -49.5 104.5t-63 106.5t-59.5 92v25h150q26 -22 53.5 -51.5t55.5 -63t52 -66.5q61 52 121 97.5t118 83.5h164l-1 -25q-38 -35 -94 -89t-110.5 -111t-87.5 -103h-249z" />
    <glyph glyph-name="tcaron" unicode="&#x165;" horiz-adv-x="758" 
d="M390 -20q-121 0 -196.5 54.5t-75.5 191.5q0 27 3.5 59.5t10.5 67.5l122 576h-160l22 112l189 77l126 234h147l-52 -245h282l-38 -178h-281l-123 -577q-5 -21 -8.5 -44.5t-3.5 -42.5q0 -45 25 -70t76 -25q39 0 75 8t79 23v-177q-37 -17 -96 -30.5t-123 -13.5zM646 1229v25
q21 37 47.5 91t51 110.5t39.5 100.5h220v-19q-19 -40 -54.5 -94t-79 -110.5t-88.5 -103.5h-136z" />
    <glyph glyph-name="Tbar" unicode="&#x166;" horiz-adv-x="1055" 
d="M291 0l134 636h-257l43 197h254l92 425h-380l43 204h998l-42 -204h-381l-91 -425h265l-42 -197h-264l-134 -636h-238z" />
    <glyph glyph-name="tbar" unicode="&#x167;" horiz-adv-x="758" 
d="M390 -20q-121 0 -196.5 54.5t-75.5 191.5q0 27 3.5 59.5t10.5 67.5l39 186h-135l34 161h135l49 229h-160l22 112l189 77l126 234h147l-52 -245h282l-38 -178h-281l-49 -229h239l-34 -161h-240l-39 -187q-5 -21 -8.5 -44.5t-3.5 -42.5q0 -45 25 -70t76 -25q39 0 75 8
t79 23v-177q-37 -17 -96 -30.5t-123 -13.5z" />
    <glyph glyph-name="Utilde" unicode="&#x168;" horiz-adv-x="1402" 
d="M609 -20q-150 0 -252 49t-153 140.5t-51 218.5q0 33 4.5 78t14.5 90l193 906h237l-193 -908q-9 -41 -14.5 -82t-5.5 -70q0 -103 60.5 -160t180.5 -57q106 0 176 38.5t113.5 115.5t67.5 191l198 932h237l-202 -954q-34 -159 -107 -278t-196 -184.5t-308 -65.5zM550 1598
q19 95 55 157.5t86.5 93.5t114.5 31q47 0 86.5 -16.5t73 -38.5t63.5 -38.5t59 -16.5q39 0 64 26t49 86h137q-22 -96 -59 -159t-87.5 -93.5t-114.5 -30.5q-45 0 -82.5 17t-70.5 39t-64.5 38.5t-64.5 16.5q-37 0 -62.5 -28t-44.5 -84h-138z" />
    <glyph glyph-name="utilde" unicode="&#x169;" horiz-adv-x="1209" 
d="M391 -20q-89 0 -151.5 35t-95 101.5t-32.5 159.5q0 41 6.5 90.5t16.5 102.5l136 638h234l-143 -672q-7 -39 -11.5 -70.5t-4.5 -57.5q0 -67 31.5 -101.5t98.5 -34.5q72 0 140.5 54.5t124.5 158.5t87 251l100 472h232l-234 -1107h-184l24 210h-10q-40 -59 -93 -111.5
t-120 -85.5t-152 -33zM379 1242q19 95 55 157.5t86.5 93.5t114.5 31q47 0 86.5 -16.5t73 -38.5t63.5 -38.5t59 -16.5q39 0 64 26t49 86h137q-22 -96 -59 -159t-87.5 -93.5t-114.5 -30.5q-45 0 -82.5 17t-70.5 39t-64.5 38.5t-64.5 16.5q-37 0 -62.5 -28t-44.5 -84h-138z" />
    <glyph glyph-name="Umacron" unicode="&#x16a;" horiz-adv-x="1402" 
d="M609 -20q-150 0 -252 49t-153 140.5t-51 218.5q0 33 4.5 78t14.5 90l193 906h237l-193 -908q-9 -41 -14.5 -82t-5.5 -70q0 -103 60.5 -160t180.5 -57q106 0 176 38.5t113.5 115.5t67.5 191l198 932h237l-202 -954q-34 -159 -107 -278t-196 -184.5t-308 -65.5zM622 1598
l36 173h582l-36 -173h-582z" />
    <glyph glyph-name="umacron" unicode="&#x16b;" horiz-adv-x="1209" 
d="M391 -20q-89 0 -151.5 35t-95 101.5t-32.5 159.5q0 41 6.5 90.5t16.5 102.5l136 638h234l-143 -672q-7 -39 -11.5 -70.5t-4.5 -57.5q0 -67 31.5 -101.5t98.5 -34.5q72 0 140.5 54.5t124.5 158.5t87 251l100 472h232l-234 -1107h-184l24 210h-10q-40 -59 -93 -111.5
t-120 -85.5t-152 -33zM451 1242l36 173h582l-36 -173h-582z" />
    <glyph glyph-name="Ubreve" unicode="&#x16c;" horiz-adv-x="1402" 
d="M609 -20q-150 0 -252 49t-153 140.5t-51 218.5q0 33 4.5 78t14.5 90l193 906h237l-193 -908q-9 -41 -14.5 -82t-5.5 -70q0 -103 60.5 -160t180.5 -57q106 0 176 38.5t113.5 115.5t67.5 191l198 932h237l-202 -954q-34 -159 -107 -278t-196 -184.5t-308 -65.5zM914 1597
q-96 0 -159.5 33t-95 89.5t-31.5 126.5q0 16 1 29.5t3 25.5h137q0 -41 15.5 -69.5t50.5 -43.5t92 -15q86 0 135 31.5t65 96.5h147q-30 -152 -119 -228t-241 -76z" />
    <glyph glyph-name="ubreve" unicode="&#x16d;" horiz-adv-x="1209" 
d="M391 -20q-89 0 -151.5 35t-95 101.5t-32.5 159.5q0 41 6.5 90.5t16.5 102.5l136 638h234l-143 -672q-7 -39 -11.5 -70.5t-4.5 -57.5q0 -67 31.5 -101.5t98.5 -34.5q72 0 140.5 54.5t124.5 158.5t87 251l100 472h232l-234 -1107h-184l24 210h-10q-40 -59 -93 -111.5
t-120 -85.5t-152 -33zM744 1241q-96 0 -159.5 33t-95 89.5t-31.5 126.5q0 16 1 29.5t3 25.5h137q0 -41 15.5 -69.5t50.5 -43.5t92 -15q86 0 135 31.5t65 96.5h147q-30 -152 -119 -228t-241 -76z" />
    <glyph glyph-name="Uring" unicode="&#x16e;" horiz-adv-x="1402" 
d="M609 -20q-150 0 -252 49t-153 140.5t-51 218.5q0 33 4.5 78t14.5 90l193 906h237l-193 -908q-9 -41 -14.5 -82t-5.5 -70q0 -103 60.5 -160t180.5 -57q106 0 176 38.5t113.5 115.5t67.5 191l198 932h237l-202 -954q-34 -159 -107 -278t-196 -184.5t-308 -65.5zM936 1597
q-103 0 -168 60t-65 166q0 105 66.5 164.5t166.5 59.5q102 0 170 -59.5t68 -162.5q0 -108 -68 -168t-170 -60zM936 1715q48 0 78 29t30 79q0 49 -30.5 78t-77.5 29q-45 0 -75.5 -29t-30.5 -78q0 -50 27.5 -79t78.5 -29z" />
    <glyph glyph-name="uring" unicode="&#x16f;" horiz-adv-x="1209" 
d="M391 -20q-89 0 -151.5 35t-95 101.5t-32.5 159.5q0 41 6.5 90.5t16.5 102.5l136 638h234l-143 -672q-7 -39 -11.5 -70.5t-4.5 -57.5q0 -67 31.5 -101.5t98.5 -34.5q72 0 140.5 54.5t124.5 158.5t87 251l100 472h232l-234 -1107h-184l24 210h-10q-40 -59 -93 -111.5
t-120 -85.5t-152 -33zM767 1241q-103 0 -168 60t-65 166q0 105 66.5 164.5t166.5 59.5q102 0 170 -59.5t68 -162.5q0 -108 -68 -168t-170 -60zM767 1359q48 0 78 29t30 79q0 49 -30.5 78t-77.5 29q-45 0 -75.5 -29t-30.5 -78q0 -50 27.5 -79t78.5 -29z" />
    <glyph glyph-name="Uhungarumlaut" unicode="&#x170;" horiz-adv-x="1402" 
d="M609 -20q-150 0 -252 49t-153 140.5t-51 218.5q0 33 4.5 78t14.5 90l193 906h237l-193 -908q-9 -41 -14.5 -82t-5.5 -70q0 -103 60.5 -160t180.5 -57q106 0 176 38.5t113.5 115.5t67.5 191l198 932h237l-202 -954q-34 -159 -107 -278t-196 -184.5t-308 -65.5zM1011 1597
v25q35 39 77.5 92t84 108.5t71.5 102.5h238v-18q-22 -28 -62.5 -69t-89.5 -86t-98 -85.5t-88 -69.5h-133zM640 1597v25q35 39 78 92t84 108.5t71 102.5h238v-18q-21 -28 -61.5 -69t-89.5 -86t-98.5 -85.5t-88.5 -69.5h-133z" />
    <glyph glyph-name="uhungarumlaut" unicode="&#x171;" horiz-adv-x="1209" 
d="M391 -20q-89 0 -151.5 35t-95 101.5t-32.5 159.5q0 41 6.5 90.5t16.5 102.5l136 638h234l-143 -672q-7 -39 -11.5 -70.5t-4.5 -57.5q0 -67 31.5 -101.5t98.5 -34.5q72 0 140.5 54.5t124.5 158.5t87 251l100 472h232l-234 -1107h-184l24 210h-10q-40 -59 -93 -111.5
t-120 -85.5t-152 -33zM841 1241v25q35 39 77.5 92t84 108.5t71.5 102.5h238v-18q-22 -28 -62.5 -69t-89.5 -86t-98 -85.5t-88 -69.5h-133zM470 1241v25q35 39 78 92t84 108.5t71 102.5h238v-18q-21 -28 -61.5 -69t-89.5 -86t-98.5 -85.5t-88.5 -69.5h-133z" />
    <glyph glyph-name="Uogonek" unicode="&#x172;" horiz-adv-x="1402" 
d="M609 -20q-150 0 -252 49t-153 140.5t-51 218.5q0 33 4.5 78t14.5 90l193 906h237l-193 -908q-9 -41 -14.5 -82t-5.5 -70q0 -103 60.5 -160t180.5 -57q106 0 176 38.5t113.5 115.5t67.5 191l198 932h237l-202 -954q-34 -159 -107 -278t-196 -184.5t-308 -65.5zM596 -468
q-89 0 -144 46.5t-55 131.5q0 66 28.5 117t77.5 93.5t111 81.5l156 -2q-44 -35 -89 -74.5t-74.5 -84.5t-29.5 -97q0 -32 17.5 -48.5t47.5 -16.5q25 0 47.5 4t45.5 10v-141q-31 -9 -65 -14.5t-74 -5.5z" />
    <glyph glyph-name="uogonek" unicode="&#x173;" horiz-adv-x="1209" 
d="M391 -20q-89 0 -151.5 35t-95 101.5t-32.5 159.5q0 41 6.5 90.5t16.5 102.5l136 638h234l-143 -672q-7 -39 -11.5 -70.5t-4.5 -57.5q0 -67 31.5 -101.5t98.5 -34.5q72 0 140.5 54.5t124.5 158.5t87 251l100 472h232l-234 -1107h-184l24 210h-10q-40 -59 -93 -111.5
t-120 -85.5t-152 -33zM726 -468q-89 0 -144 46.5t-55 131.5q0 66 28.5 117t77.5 93.5t111 81.5l156 -2q-44 -35 -89 -74.5t-74.5 -84.5t-29.5 -97q0 -32 17.5 -48.5t47.5 -16.5q25 0 47.5 4t45.5 10v-141q-31 -9 -65 -14.5t-74 -5.5z" />
    <glyph glyph-name="Wcircumflex" unicode="&#x174;" horiz-adv-x="1789" 
d="M258 0l-54 1462h226l19 -856q2 -80 -1 -170.5t-9 -170.5h7q28 79 64.5 173.5t72.5 170.5l392 853h221l32 -852q4 -72 4 -169.5t-3 -176.5h7q18 54 39.5 114t44 119.5t44.5 111.5l363 853h244l-655 -1462h-259l-32 818q-2 66 -3.5 119.5t-2 100.5t0.5 93h-7
q-22 -71 -49 -138.5t-64 -148.5l-387 -844h-255zM742 1597l1 25q38 36 94 89.5t110 111t86 102.5h249q21 -50 51 -105t63 -106t59 -92v-25h-151q-24 23 -52 52.5t-56 63t-53 65.5q-60 -52 -119.5 -97.5t-116.5 -83.5h-165z" />
    <glyph glyph-name="wcircumflex" unicode="&#x175;" horiz-adv-x="1540" 
d="M170 0l-49 1107h222l11 -550q2 -95 0 -179t-8 -160h8q15 46 37 105t44.5 113t36.5 85l266 586h253l20 -571q1 -73 1.5 -156t-4.5 -162h9q16 48 38 110.5t47.5 128t49.5 121.5l236 529h242l-520 -1107h-264l-21 568q-2 47 -1.5 102t2 113t2.5 113h-10
q-17 -49 -36.5 -100.5t-40.5 -103.5t-45 -104l-266 -588h-260zM521 1241l1 25q38 36 94 89.5t110 111t86 102.5h249q21 -50 51 -105t63 -106t59 -92v-25h-151q-24 23 -52 52.5t-56 63t-53 65.5q-60 -52 -119.5 -97.5t-116.5 -83.5h-165z" />
    <glyph glyph-name="Ycircumflex" unicode="&#x176;" horiz-adv-x="1096" 
d="M308 0l119 555l-239 907h240l156 -668l434 668h267l-624 -910l-116 -552h-237zM385 1597l1 25q38 36 94 89.5t110 111t86 102.5h249q21 -50 51 -105t63 -106t59 -92v-25h-151q-24 23 -52 52.5t-56 63t-53 65.5q-60 -52 -119.5 -97.5t-116.5 -83.5h-165z" />
    <glyph glyph-name="ycircumflex" unicode="&#x177;" horiz-adv-x="1003" 
d="M-26 -492q-51 0 -83.5 6t-59.5 14v187q27 -6 57 -10.5t66 -4.5q89 0 149.5 53.5t111.5 147.5l51 93l-166 1113h232l66 -540q7 -56 11.5 -120t6.5 -123.5t2 -100.5h7q14 34 35 86t47 111t52 110l294 577h253l-691 -1282q-57 -106 -122.5 -177t-143.5 -105.5t-175 -34.5z
M237 1241l1 25q38 36 94 89.5t110 111t86 102.5h249q21 -50 51 -105t63 -106t59 -92v-25h-151q-24 23 -52 52.5t-56 63t-53 65.5q-60 -52 -119.5 -97.5t-116.5 -83.5h-165z" />
    <glyph glyph-name="Ydieresis" unicode="&#x178;" horiz-adv-x="1096" 
d="M308 0l119 555l-239 907h240l156 -668l434 668h267l-624 -910l-116 -552h-237zM959 1640q-45 0 -74.5 23t-29.5 73q0 60 33 97.5t94 37.5q45 0 73 -22t28 -70q0 -64 -33.5 -101.5t-90.5 -37.5zM584 1640q-46 0 -75 23t-29 73q0 60 32.5 97.5t93.5 37.5q31 0 53.5 -9.5
t35.5 -30t13 -52.5q0 -64 -33 -101.5t-91 -37.5z" />
    <glyph glyph-name="Zacute" unicode="&#x179;" horiz-adv-x="1094" 
d="M-40 0l32 166l854 1092h-601l43 204h899l-33 -167l-856 -1091h648l-42 -204h-944zM635 1597v25q35 39 76.5 92t81.5 108.5t70 102.5h262v-18q-22 -28 -61.5 -69t-88 -86t-96.5 -85.5t-88 -69.5h-156z" />
    <glyph glyph-name="zacute" unicode="&#x17a;" horiz-adv-x="921" 
d="M-39 0l29 147l637 781h-440l38 179h708l-35 -166l-626 -761h487l-37 -180h-761zM472 1241v25q35 39 76.5 92t81.5 108.5t70 102.5h262v-18q-22 -28 -61.5 -69t-88 -86t-96.5 -85.5t-88 -69.5h-156z" />
    <glyph glyph-name="Zdotaccent" unicode="&#x17b;" horiz-adv-x="1094" 
d="M-40 0l32 166l854 1092h-601l43 204h899l-33 -167l-856 -1091h648l-42 -204h-944zM784 1629q-52 0 -87.5 25.5t-35.5 80.5q0 68 39.5 109.5t109.5 41.5q35 0 61.5 -10.5t42 -33.5t15.5 -59q0 -70 -39 -112t-106 -42z" />
    <glyph glyph-name="zdotaccent" unicode="&#x17c;" horiz-adv-x="921" 
d="M-39 0l29 147l637 781h-440l38 179h708l-35 -166l-626 -761h487l-37 -180h-761zM621 1273q-52 0 -87.5 25.5t-35.5 80.5q0 68 39.5 109.5t109.5 41.5q35 0 61.5 -10.5t42 -33.5t15.5 -59q0 -70 -39 -112t-106 -42z" />
    <glyph glyph-name="Zcaron" unicode="&#x17d;" horiz-adv-x="1094" 
d="M-40 0l32 166l854 1092h-601l43 204h899l-33 -167l-856 -1091h648l-42 -204h-944zM642 1597q-19 50 -49.5 104.5t-63 106.5t-59.5 92v25h150q26 -22 53.5 -51.5t55.5 -63t52 -66.5q61 52 121 97.5t118 83.5h164l-1 -25q-38 -35 -94 -89t-110.5 -111t-87.5 -103h-249z" />
    <glyph glyph-name="zcaron" unicode="&#x17e;" horiz-adv-x="921" 
d="M-39 0l29 147l637 781h-440l38 179h708l-35 -166l-626 -761h487l-37 -180h-761zM478 1241q-19 50 -49.5 104.5t-63 106.5t-59.5 92v25h150q26 -22 53.5 -51.5t55.5 -63t52 -66.5q61 52 121 97.5t118 83.5h164l-1 -25q-38 -35 -94 -89t-110.5 -111t-87.5 -103h-249z" />
    <glyph glyph-name="longs" unicode="&#x17f;" horiz-adv-x="655" 
d="M-104 -492q-42 0 -82 7t-67 16v192q29 -11 56 -16.5t57 -5.5q64 0 110 49t67 152l276 1304q29 136 80.5 214.5t128.5 112.5t181 34q61 0 117 -12.5t97 -30.5l-62 -176q-29 12 -62.5 21t-72.5 9q-48 0 -82.5 -19.5t-56.5 -60t-36 -103.5l-280 -1325q-23 -106 -67 -188
t-117 -128t-185 -46z" />
    <glyph glyph-name="florin" unicode="&#x192;" horiz-adv-x="1128" 
d="M136 -492q-42 0 -82.5 7t-68.5 16v192q29 -11 56.5 -16.5t58.5 -5.5q63 0 109.5 48.5t66.5 150.5l196 923h-180l21 109l197 71l23 116q29 136 80.5 215.5t129 114t182.5 34.5q60 0 115.5 -12t96.5 -31l-62 -176q-29 12 -62 21t-72 9q-72 0 -114.5 -44.5t-61.5 -142.5
l-22 -107h228l-38 -177h-229l-201 -954q-22 -106 -66 -187.5t-117 -127.5t-184 -46z" />
    <glyph glyph-name="Ohorn" unicode="&#x1a0;" horiz-adv-x="1527" 
d="M678 -20q-177 0 -297.5 69.5t-182 196.5t-61.5 297q0 120 21.5 235.5t63.5 220.5t105.5 194t147.5 154.5t188.5 101.5t228.5 36q153 0 264 -55.5t176 -158.5q71 35 110.5 107t55.5 178h242l9 -23q-42 -153 -129.5 -247.5t-229.5 -149.5q15 -47 23 -100t8 -112
q0 -120 -19.5 -236.5t-60 -222t-101.5 -194t-143.5 -153.5t-187 -101.5t-231.5 -36.5zM692 185q73 0 137 26t117.5 73.5t96 114.5t72 149t45.5 176.5t16 197.5q0 167 -78.5 263t-223.5 96q-75 0 -140.5 -26.5t-120.5 -76t-97.5 -117t-72.5 -149.5t-45.5 -174.5t-15.5 -192.5
q0 -114 36.5 -195t106 -123t167.5 -42z" />
    <glyph glyph-name="ohorn" unicode="&#x1a1;" horiz-adv-x="1240" 
d="M512 -18q-126 0 -220 52t-145.5 147.5t-51.5 226.5q0 111 23.5 216t69.5 196t115 159.5t160 107t204 38.5q110 0 194 -38.5t137 -110.5q60 24 96 67.5t56.5 102.5t30.5 126h237l9 -24q-25 -100 -69 -175.5t-116 -130.5t-183 -95q13 -34 18 -73t5 -82q0 -108 -22.5 -211
t-67.5 -193.5t-113.5 -159t-160 -107.5t-206.5 -39zM529 174q56 0 104.5 25.5t87.5 73t66.5 113t42.5 145.5t15 171q0 61 -18 113.5t-59.5 85t-110.5 32.5q-62 0 -113.5 -29.5t-91 -81.5t-66.5 -119.5t-41 -144t-14 -154.5q0 -111 50.5 -170.5t147.5 -59.5z" />
    <glyph glyph-name="Uhorn" unicode="&#x1af;" horiz-adv-x="1538" 
d="M608 -20q-149 0 -250.5 51t-153 144t-51.5 219q0 35 5 78t14 84l193 906h237l-193 -909q-9 -42 -14.5 -79.5t-5.5 -65.5q0 -104 58.5 -163.5t182.5 -59.5q100 0 170.5 38t116 115t70.5 192l198 932h237l-41 -191q56 15 94.5 51t63.5 95t37 139h240l10 -23
q-22 -83 -62 -153.5t-99.5 -125t-138 -90t-177.5 -46.5l-129 -610q-34 -159 -107.5 -278t-197 -184.5t-307.5 -65.5z" />
    <glyph glyph-name="uhorn" unicode="&#x1b0;" horiz-adv-x="1369" 
d="M391 -20q-89 0 -152 35t-96 102.5t-33 161.5q0 39 7.5 88t17.5 102l136 638h234l-143 -672q-7 -39 -11.5 -70.5t-4.5 -55.5q0 -68 31.5 -103t98.5 -35q72 0 140.5 54.5t124.5 158.5t87 251l100 472h232l-25 -122q59 13 97.5 50.5t62.5 96.5t36 139h241l9 -24
q-22 -83 -62.5 -153.5t-100 -125t-138.5 -89.5t-178 -48l-176 -831h-183l24 210h-8q-41 -59 -94 -111.5t-121 -85.5t-153 -33z" />
    <glyph glyph-name="uni01EA" unicode="&#x1ea;" horiz-adv-x="1486" 
d="M678 -20q-177 0 -297.5 69.5t-182 196.5t-61.5 297q0 120 21.5 235.5t63.5 220.5t105.5 194t147.5 154.5t188.5 101.5t228.5 36q256 0 392.5 -151t136.5 -410q0 -120 -19.5 -236.5t-60 -222t-101.5 -194t-143.5 -153.5t-187 -101.5t-231.5 -36.5zM692 185q73 0 137 26
t117.5 73.5t96 114.5t72 149t45.5 176.5t16 197.5q0 167 -78.5 263t-223.5 96q-75 0 -140.5 -26.5t-120.5 -76t-97.5 -117t-72.5 -149.5t-45.5 -174.5t-15.5 -192.5q0 -114 36.5 -195t106 -123t167.5 -42zM612 -468q-89 0 -144 46.5t-55 131.5q0 66 28.5 117t77.5 93.5
t111 81.5l156 -2q-44 -35 -89 -74.5t-74.5 -84.5t-29.5 -97q0 -32 17.5 -48.5t47.5 -16.5q25 0 47.5 4t45.5 10v-141q-31 -9 -65 -14.5t-74 -5.5z" />
    <glyph glyph-name="uni01EB" unicode="&#x1eb;" horiz-adv-x="1176" 
d="M512 -18q-126 0 -220 52t-145.5 147.5t-51.5 226.5q0 111 23.5 216t69.5 196t115 159.5t160 107t204 38.5q129 0 222 -52t143 -149t50 -232q0 -108 -22.5 -211t-67.5 -193.5t-113.5 -159t-160 -107.5t-206.5 -39zM529 174q56 0 104.5 25.5t87.5 73t66.5 113t42.5 145.5
t15 171q0 61 -18 113.5t-59.5 85t-110.5 32.5q-62 0 -113.5 -29.5t-91 -81.5t-66.5 -119.5t-41 -144t-14 -154.5q0 -111 50.5 -170.5t147.5 -59.5zM436 -468q-89 0 -144 46.5t-55 131.5q0 66 28.5 117t77.5 93.5t111 81.5l156 -2q-44 -35 -89 -74.5t-74.5 -84.5t-29.5 -97
q0 -32 17.5 -48.5t47.5 -16.5q25 0 47.5 4t45.5 10v-141q-31 -9 -65 -14.5t-74 -5.5z" />
    <glyph glyph-name="uni01EC" unicode="&#x1ec;" horiz-adv-x="1486" 
d="M678 -20q-177 0 -297.5 69.5t-182 196.5t-61.5 297q0 120 21.5 235.5t63.5 220.5t105.5 194t147.5 154.5t188.5 101.5t228.5 36q256 0 392.5 -151t136.5 -410q0 -120 -19.5 -236.5t-60 -222t-101.5 -194t-143.5 -153.5t-187 -101.5t-231.5 -36.5zM692 185q73 0 137 26
t117.5 73.5t96 114.5t72 149t45.5 176.5t16 197.5q0 167 -78.5 263t-223.5 96q-75 0 -140.5 -26.5t-120.5 -76t-97.5 -117t-72.5 -149.5t-45.5 -174.5t-15.5 -192.5q0 -114 36.5 -195t106 -123t167.5 -42zM664 1598l36 173h582l-36 -173h-582zM612 -468q-89 0 -144 46.5
t-55 131.5q0 66 28.5 117t77.5 93.5t111 81.5l156 -2q-44 -35 -89 -74.5t-74.5 -84.5t-29.5 -97q0 -32 17.5 -48.5t47.5 -16.5q25 0 47.5 4t45.5 10v-141q-31 -9 -65 -14.5t-74 -5.5z" />
    <glyph glyph-name="uni01ED" unicode="&#x1ed;" horiz-adv-x="1176" 
d="M512 -18q-126 0 -220 52t-145.5 147.5t-51.5 226.5q0 111 23.5 216t69.5 196t115 159.5t160 107t204 38.5q129 0 222 -52t143 -149t50 -232q0 -108 -22.5 -211t-67.5 -193.5t-113.5 -159t-160 -107.5t-206.5 -39zM529 174q56 0 104.5 25.5t87.5 73t66.5 113t42.5 145.5
t15 171q0 61 -18 113.5t-59.5 85t-110.5 32.5q-62 0 -113.5 -29.5t-91 -81.5t-66.5 -119.5t-41 -144t-14 -154.5q0 -111 50.5 -170.5t147.5 -59.5zM410 1242l36 173h582l-36 -173h-582zM436 -468q-89 0 -144 46.5t-55 131.5q0 66 28.5 117t77.5 93.5t111 81.5l156 -2
q-44 -35 -89 -74.5t-74.5 -84.5t-29.5 -97q0 -32 17.5 -48.5t47.5 -16.5q25 0 47.5 4t45.5 10v-141q-31 -9 -65 -14.5t-74 -5.5z" />
    <glyph glyph-name="uni01F0" unicode="&#x1f0;" horiz-adv-x="563" 
d="M-112 -492q-42 0 -82.5 7t-67.5 16v192q29 -11 57.5 -16.5t59.5 -5.5q42 0 75.5 20t58 61.5t38.5 104.5l258 1220h233l-266 -1251q-21 -101 -63.5 -179.5t-115.5 -123.5t-185 -45zM296 1241q-19 50 -49.5 104.5t-63 106.5t-59.5 92v25h150q26 -22 53.5 -51.5t55.5 -63
t52 -66.5q61 52 121 97.5t118 83.5h164l-1 -25q-38 -35 -94 -89t-110.5 -111t-87.5 -103h-249z" />
    <glyph glyph-name="Aringacute" unicode="&#x1fa;" horiz-adv-x="1217" 
d="M-119 0l719 1319q-18 25 -27.5 58t-9.5 72q0 105 66.5 165.5t166.5 60.5q102 0 170.5 -60.5t68.5 -164.5q0 -60 -24.5 -106t-63.5 -75l159 -1269h-231l-45 398h-486l-210 -398h-253zM450 604h364l-33 312q-5 54 -11 127t-9 136l-20 1q-27 -61 -58 -126.5t-60 -120.5z
M796 1342q48 0 78 29t30 78t-30.5 78t-77.5 29q-45 0 -76 -29t-31 -78t28 -78t79 -29zM734 1728v16q35 30 75.5 69.5t79 80t66.5 74.5h275v-14q-35 -33 -93.5 -75t-122 -82.5t-114.5 -68.5h-166z" />
    <glyph glyph-name="aringacute" unicode="&#x1fb;" horiz-adv-x="1188" 
d="M401 -20q-85 0 -154.5 41.5t-110.5 128t-41 220.5q0 116 24.5 226t70 206t110.5 169.5t147 115t177 41.5q72 0 126 -24.5t91 -65.5t60 -91h9l60 160h180l-235 -1107h-179l22 179h-8q-43 -55 -95.5 -100t-115.5 -72t-138 -27zM487 171q70 0 134 52.5t113.5 139.5t73.5 191
q12 50 16.5 95t4.5 90q0 87 -46 142t-126 55q-55 0 -104.5 -31t-89.5 -85.5t-69.5 -125.5t-45 -152.5t-15.5 -165.5q0 -101 40.5 -153t113.5 -52zM734 1198q-104 0 -169 60t-65 165t66.5 165t167.5 60q100 0 168 -59.5t68 -163.5q0 -107 -67.5 -167t-168.5 -60zM734 1315
q46 0 76.5 29.5t30.5 78.5q0 50 -31 78.5t-76 28.5q-47 0 -77 -28.5t-30 -78.5q0 -49 27 -78.5t80 -29.5zM674 1725v16q35 30 75 69.5t79 80t67 73.5h275v-13q-35 -33 -93.5 -75t-122.5 -82.5t-115 -68.5h-165z" />
    <glyph glyph-name="AEacute" unicode="&#x1fc;" horiz-adv-x="1756" 
d="M-120 0l927 1462h1024l-42 -202h-544l-85 -397h509l-42 -201h-508l-97 -459h543l-43 -203h-781l86 407h-431l-255 -407h-261zM526 612h344l137 648h-82zM969 1597v25q35 39 76.5 92t81.5 108.5t70 102.5h262v-18q-22 -28 -61.5 -69t-88 -86t-96.5 -85.5t-88 -69.5h-156z
" />
    <glyph glyph-name="aeacute" unicode="&#x1fd;" horiz-adv-x="1735" 
d="M383 -20q-86 0 -151 45t-101 131.5t-36 212.5q0 120 24.5 232t70.5 207.5t110 167t143 112t170 40.5q69 0 117.5 -23.5t83 -64.5t59.5 -93h10l62 160h148l-25 -122q51 66 132.5 104.5t181.5 38.5q135 0 219 -74t84 -205q0 -86 -39 -157t-118.5 -122.5t-200.5 -79.5
t-285 -28h-48q-1 -15 -2 -29.5t-1 -29.5q0 -106 55.5 -173t182.5 -67q76 0 154 24.5t150 59.5v-187q-78 -36 -164 -58t-179 -22q-110 0 -187 35t-120 109l-25 -124h-149l20 178h-8q-47 -58 -96.5 -102.5t-108.5 -70t-133 -25.5zM469 171q51 0 98 28t87.5 78t72.5 117t51 144
q14 52 19.5 100.5t5.5 94.5q0 91 -39 147t-115 56q-54 0 -102.5 -31t-87.5 -85.5t-67.5 -125.5t-43.5 -152.5t-15 -165.5q0 -105 38 -155t98 -50zM1023 632h36q122 0 211.5 23.5t138.5 69.5t49 112q0 58 -33.5 85.5t-87.5 27.5q-67 0 -129.5 -38.5t-111 -110t-73.5 -169.5z
M880 1241v25q35 39 76.5 92t81.5 108.5t70 102.5h262v-18q-22 -28 -61.5 -69t-88 -86t-96.5 -85.5t-88 -69.5h-156z" />
    <glyph glyph-name="Oslashacute" unicode="&#x1fe;" horiz-adv-x="1486" 
d="M236 -83l-131 101l132 163q-51 70 -75.5 162.5t-24.5 199.5q0 120 21.5 235.5t63.5 220.5t105.5 194t147.5 154.5t188.5 101.5t228.5 36q97 0 176 -23.5t143 -71.5l120 149l131 -102l-135 -164q47 -67 70.5 -156.5t23.5 -192.5q0 -120 -19.5 -236.5t-60 -222t-101.5 -194
t-143.5 -153.5t-187 -101.5t-231.5 -36.5q-98 0 -177 22t-144 65zM694 181q74 0 139 26.5t119.5 74.5t97 115t72.5 149.5t45.5 177.5t15.5 198q0 38 -5.5 76t-14.5 67l-667 -825q35 -26 85.5 -42.5t112.5 -16.5zM401 381l671 837q-36 31 -86 49t-113 18q-77 0 -143.5 -27
t-122 -76.5t-98.5 -118t-72.5 -151t-45 -175t-15.5 -192.5q0 -44 6.5 -86t18.5 -78zM838 1582v25q35 39 76.5 92t81.5 108.5t70 102.5h262v-18q-22 -28 -61.5 -69t-88 -86t-96.5 -85.5t-88 -69.5h-156z" />
    <glyph glyph-name="oslashacute" unicode="&#x1ff;" horiz-adv-x="1176" 
d="M169 -89l-121 94l118 144q-34 53 -52 117t-18 142q0 111 23 216t69 196t115 159.5t160 107t204 38.5q73 0 133 -16t108 -48l88 108l123 -93l-102 -118q32 -51 47.5 -118t15.5 -140q0 -108 -22 -212.5t-67 -195.5t-113 -161t-159 -109.5t-206 -39.5q-69 0 -129 16t-108 46
zM529 167q59 0 108.5 26.5t88.5 74t66.5 110t42.5 136t17 150.5q1 24 -1 45t-6 35l-440 -540q20 -17 53.5 -27t70.5 -10zM334 354l446 547q-19 15 -50 26.5t-73 11.5q-64 0 -116 -28t-92 -76.5t-67 -111.5t-41 -134t-16 -144q-1 -27 1.5 -51t7.5 -40zM629 1241v25
q35 39 76.5 92t81.5 108.5t70 102.5h262v-18q-22 -28 -61.5 -69t-88 -86t-96.5 -85.5t-88 -69.5h-156z" />
    <glyph glyph-name="uni0218" unicode="&#x218;" horiz-adv-x="1059" 
d="M390 -20q-110 0 -196.5 20t-153.5 58v220q77 -41 163.5 -68.5t188.5 -27.5q60 0 113 12.5t94 39.5t64 68.5t23 98.5q0 58 -24 100t-71 79.5t-118 81.5q-68 44 -127 97t-95 123.5t-36 167.5q0 100 36.5 180t103 136.5t156 86.5t194.5 30q114 0 205 -23.5t176 -68.5
l-87 -188q-67 33 -141.5 54.5t-152.5 21.5q-52 0 -96.5 -14t-77.5 -41t-51.5 -66.5t-18.5 -90.5q0 -58 23 -98t67 -73.5t107 -72.5q85 -53 146 -109t93 -125t32 -163q0 -113 -40.5 -196.5t-114 -139t-171.5 -83t-213 -27.5zM167 -453v27q21 37 47 90.5t50.5 110t39.5 100.5
h219v-20q-19 -40 -54 -94t-78.5 -110t-88.5 -104h-135z" />
    <glyph glyph-name="uni0219" unicode="&#x219;" horiz-adv-x="926" 
d="M339 -20q-104 0 -181.5 17.5t-139.5 50.5v201q64 -38 144.5 -63.5t165.5 -25.5q66 0 115 18t76.5 51.5t27.5 81.5q0 35 -16 62t-55 55t-108 67q-73 41 -123.5 83.5t-77 94.5t-26.5 122q0 105 48.5 179.5t138 114t211.5 39.5q98 0 185 -22.5t161 -62.5l-77 -174
q-55 31 -122 53.5t-144 22.5q-71 0 -118.5 -33t-47.5 -94q0 -32 15.5 -57.5t52.5 -51.5t101 -60q69 -38 123 -80t85 -96.5t31 -131.5q0 -117 -54.5 -197.5t-154.5 -122t-236 -41.5zM106 -453v27q21 37 47 90.5t50.5 110t39.5 100.5h219v-20q-19 -40 -54 -94t-78.5 -110
t-88.5 -104h-135z" />
    <glyph glyph-name="uni021A" unicode="&#x21a;" horiz-adv-x="1055" 
d="M291 0l266 1258h-380l43 204h998l-42 -204h-381l-266 -1258h-238zM171 -453v27q21 37 47 90.5t50.5 110t39.5 100.5h219v-20q-19 -40 -54 -94t-78.5 -110t-88.5 -104h-135z" />
    <glyph glyph-name="uni021B" unicode="&#x21b;" horiz-adv-x="758" 
d="M390 -20q-121 0 -196.5 54.5t-75.5 191.5q0 27 3.5 59.5t10.5 67.5l122 576h-160l22 112l189 77l126 234h147l-52 -245h282l-38 -178h-281l-123 -577q-5 -21 -8.5 -44.5t-3.5 -42.5q0 -45 25 -70t76 -25q39 0 75 8t79 23v-177q-37 -17 -96 -30.5t-123 -13.5zM90 -453v27
q21 37 47 90.5t50.5 110t39.5 100.5h219v-20q-19 -40 -54 -94t-78.5 -110t-88.5 -104h-135z" />
    <glyph glyph-name="uni0237" unicode="&#x237;" horiz-adv-x="563" 
d="M-112 -492q-42 0 -82.5 7t-67.5 16v192q29 -11 57.5 -16.5t59.5 -5.5q42 0 75.5 20t58 61.5t38.5 104.5l258 1220h233l-266 -1251q-21 -101 -63.5 -179.5t-115.5 -123.5t-185 -45z" />
    <glyph glyph-name="uni0259" unicode="&#x259;" horiz-adv-x="1081" 
d="M394 -20q-169 0 -255 76.5t-86 202.5q0 86 39 156.5t119 122t201 79.5t285 28h45q2 16 3 31t1 30q0 111 -58 175t-170 64q-83 0 -154.5 -21t-159.5 -63v185q82 38 165 60t193 22q128 0 222 -48.5t145.5 -143t51.5 -231.5t-39 -266t-114.5 -233t-184.5 -165t-249 -61z
M408 158q63 0 124 38.5t109.5 110t71.5 169.5h-34q-122 0 -212 -24t-139 -70t-49 -113q0 -52 32.5 -81.5t96.5 -29.5z" />
    <glyph glyph-name="uni02BC" unicode="&#x2bc;" horiz-adv-x="393" 
d="M115 961q36 81 72.5 170t70 175t57.5 156h232l8 -22q-32 -72 -75 -154.5t-91.5 -166t-97.5 -158.5h-176z" />
    <glyph glyph-name="circumflex" unicode="&#x2c6;" horiz-adv-x="882" 
d="M233 1241l1 25q38 36 94 89.5t110 111t86 102.5h249q21 -50 51 -105t63 -106t59 -92v-25h-151q-24 23 -52 52.5t-56 63t-53 65.5q-60 -52 -119.5 -97.5t-116.5 -83.5h-165z" />
    <glyph glyph-name="caron" unicode="&#x2c7;" horiz-adv-x="883" 
d="M470 1241q-19 50 -49.5 104.5t-63 106.5t-59.5 92v25h150q26 -22 53.5 -51.5t55.5 -63t52 -66.5q61 52 121 97.5t118 83.5h164l-1 -25q-38 -35 -94 -89t-110.5 -111t-87.5 -103h-249z" />
    <glyph glyph-name="macron" unicode="&#x2c9;" horiz-adv-x="746" 
d="M229 1242l36 173h582l-36 -173h-582z" />
    <glyph glyph-name="breve" unicode="&#x2d8;" horiz-adv-x="808" 
d="M575 1241q-96 0 -159.5 33t-95 89.5t-31.5 126.5q0 16 1 29.5t3 25.5h137q0 -41 15.5 -69.5t50.5 -43.5t92 -15q86 0 135 31.5t65 96.5h147q-30 -152 -119 -228t-241 -76z" />
    <glyph glyph-name="dotaccent" unicode="&#x2d9;" horiz-adv-x="432" 
d="M385 1273q-52 0 -87.5 25.5t-35.5 80.5q0 68 39.5 109.5t109.5 41.5q35 0 61.5 -10.5t42 -33.5t15.5 -59q0 -70 -39 -112t-106 -42z" />
    <glyph glyph-name="ring" unicode="&#x2da;" horiz-adv-x="648" 
d="M515 1241q-103 0 -168 60t-65 166q0 105 66.5 164.5t166.5 59.5q102 0 170 -59.5t68 -162.5q0 -108 -68 -168t-170 -60zM515 1359q48 0 78 29t30 79q0 49 -30.5 78t-77.5 29q-45 0 -75.5 -29t-30.5 -78q0 -50 27.5 -79t78.5 -29z" />
    <glyph glyph-name="ogonek" unicode="&#x2db;" horiz-adv-x="542" 
d="M108 -468q-89 0 -144 46.5t-55 131.5q0 66 28.5 117t77.5 93.5t111 81.5l156 -2q-44 -35 -89 -74.5t-74.5 -84.5t-29.5 -97q0 -32 17.5 -48.5t47.5 -16.5q25 0 47.5 4t45.5 10v-141q-31 -9 -65 -14.5t-74 -5.5z" />
    <glyph glyph-name="tilde" unicode="&#x2dc;" horiz-adv-x="893" 
d="M229 1242q19 95 55 157.5t86.5 93.5t114.5 31q47 0 86.5 -16.5t73 -38.5t63.5 -38.5t59 -16.5q39 0 64 26t49 86h137q-22 -96 -59 -159t-87.5 -93.5t-114.5 -30.5q-45 0 -82.5 17t-70.5 39t-64.5 38.5t-64.5 16.5q-37 0 -62.5 -28t-44.5 -84h-138z" />
    <glyph glyph-name="hungarumlaut" unicode="&#x2dd;" horiz-adv-x="945" 
d="M605 1241v25q35 39 77.5 92t84 108.5t71.5 102.5h238v-18q-22 -28 -62.5 -69t-89.5 -86t-98 -85.5t-88 -69.5h-133zM234 1241v25q35 39 78 92t84 108.5t71 102.5h238v-18q-21 -28 -61.5 -69t-89.5 -86t-98.5 -85.5t-88.5 -69.5h-133z" />
    <glyph glyph-name="uni02F3" unicode="&#x2f3;" horiz-adv-x="682" 
d="M148 -574q-104 0 -168.5 59.5t-64.5 165.5q0 104 64.5 164t168.5 60q100 0 169.5 -59.5t69.5 -162.5q0 -107 -68.5 -167t-170.5 -60zM148 -456q46 0 76 29t30 78q0 48 -30 77t-76 29t-76 -29t-30 -77q0 -49 27 -78t79 -29z" />
    <glyph glyph-name="gravecomb" unicode="&#x300;" 
d="M-564 1241q-40 40 -85.5 95t-84.5 111.5t-62 100.5v21h245q14 -48 34.5 -100t45.5 -103.5t51 -99.5v-25h-144z" />
    <glyph glyph-name="acutecomb" unicode="&#x301;" 
d="M-504 1241v25q35 39 76.5 92t81.5 108.5t70 102.5h262v-18q-22 -28 -61.5 -69t-88 -86t-96.5 -85.5t-88 -69.5h-156z" />
    <glyph glyph-name="uni0302" unicode="&#x302;" 
d="M-217 1241l1 25q38 36 94 89.5t110 111t86 102.5h249q21 -50 51 -105t63 -106t59 -92v-25h-151q-24 23 -52 52.5t-56 63t-53 65.5q-60 -52 -119.5 -97.5t-116.5 -83.5h-165z" />
    <glyph glyph-name="tildecomb" unicode="&#x303;" 
d="M-870 1242q19 95 55 157.5t86.5 93.5t114.5 31q47 0 86.5 -16.5t73 -38.5t63.5 -38.5t59 -16.5q39 0 64 26t49 86h137q-22 -96 -59 -159t-87.5 -93.5t-114.5 -30.5q-45 0 -82.5 17t-70.5 39t-64.5 38.5t-64.5 16.5q-37 0 -62.5 -28t-44.5 -84h-138z" />
    <glyph glyph-name="uni0304" unicode="&#x304;" 
d="M-155 1242l36 173h582l-36 -173h-582z" />
    <glyph glyph-name="uni0306" unicode="&#x306;" 
d="M160 1241q-96 0 -159.5 33t-95 89.5t-31.5 126.5q0 16 1 29.5t3 25.5h137q0 -41 15.5 -69.5t50.5 -43.5t92 -15q86 0 135 31.5t65 96.5h147q-30 -152 -119 -228t-241 -76z" />
    <glyph glyph-name="uni0307" unicode="&#x307;" 
d="M165 1273q-52 0 -87.5 25.5t-35.5 80.5q0 68 39.5 109.5t109.5 41.5q35 0 61.5 -10.5t42 -33.5t15.5 -59q0 -70 -39 -112t-106 -42z" />
    <glyph glyph-name="uni0308" unicode="&#x308;" 
d="M358 1284q-45 0 -74.5 23t-29.5 73q0 60 33 97.5t94 37.5q45 0 73 -22t28 -70q0 -64 -33.5 -101.5t-90.5 -37.5zM-17 1284q-46 0 -75 23t-29 73q0 60 32.5 97.5t93.5 37.5q31 0 53.5 -9.5t35.5 -30t13 -52.5q0 -64 -33 -101.5t-91 -37.5z" />
    <glyph glyph-name="hookabovecomb" unicode="&#x309;" 
d="M-573 1214l18 163q46 8 83.5 21t59.5 35t22 59q0 32 -23.5 46.5t-65.5 14.5q-32 0 -59.5 -4.5t-52.5 -10.5v131q28 10 67 15t80 5q113 0 177.5 -44t64.5 -129q0 -87 -56.5 -137.5t-147.5 -74.5l-23 -90h-144z" />
    <glyph glyph-name="uni030A" unicode="&#x30a;" 
d="M181 1241q-103 0 -168 60t-65 166q0 105 66.5 164.5t166.5 59.5q102 0 170 -59.5t68 -162.5q0 -108 -68 -168t-170 -60zM181 1359q48 0 78 29t30 79q0 49 -30.5 78t-77.5 29q-45 0 -75.5 -29t-30.5 -78q0 -50 27.5 -79t78.5 -29z" />
    <glyph glyph-name="uni030B" unicode="&#x30b;" 
d="M194 1241v25q35 39 77.5 92t84 108.5t71.5 102.5h238v-18q-22 -28 -62.5 -69t-89.5 -86t-98 -85.5t-88 -69.5h-133zM-177 1241v25q35 39 78 92t84 108.5t71 102.5h238v-18q-21 -28 -61.5 -69t-89.5 -86t-98.5 -85.5t-88.5 -69.5h-133z" />
    <glyph glyph-name="uni030C" unicode="&#x30c;" 
d="M33 1241q-19 50 -49.5 104.5t-63 106.5t-59.5 92v25h150q26 -22 53.5 -51.5t55.5 -63t52 -66.5q61 52 121 97.5t118 83.5h164l-1 -25q-38 -35 -94 -89t-110.5 -111t-87.5 -103h-249z" />
    <glyph glyph-name="uni030F" unicode="&#x30f;" 
d="M-360 1241q-40 41 -85.5 95.5t-85 111t-63.5 101.5v20h232q14 -48 34.5 -100t46 -104t51.5 -99v-25h-130zM-724 1241q-40 41 -86 95.5t-85.5 111t-63.5 101.5v20h232q14 -48 34.5 -100t46 -104t53.5 -99v-25h-131z" />
    <glyph glyph-name="uni0312" unicode="&#x312;" 
d="M-72 961l-7 22q32 73 75 155t91.5 166t96.5 158h176q-26 -60 -53.5 -125.5t-53.5 -131.5t-50 -128.5t-43 -115.5h-232z" />
    <glyph glyph-name="dotbelowcomb" unicode="&#x323;" 
d="M-767 -389q-51 0 -86 25.5t-35 81.5q0 68 39 109.5t109 41.5q35 0 61.5 -11.5t41.5 -34.5t15 -58q0 -69 -38.5 -111.5t-106.5 -42.5z" />
    <glyph glyph-name="uni0326" unicode="&#x326;" 
d="M114 -453v27q21 37 47 90.5t50.5 110t39.5 100.5h219v-20q-19 -40 -54 -94t-78.5 -110t-88.5 -104h-135z" />
    <glyph glyph-name="uni0327" unicode="&#x327;" 
d="M-230 -492q-38 0 -70.5 6t-52.5 11v134q21 -5 48.5 -10t52.5 -5q45 0 75 11t46 33t16 54q0 39 -35 61.5t-107 30.5l98 166h146l-50 -95q55 -16 96 -54.5t41 -112.5q0 -65 -33.5 -117t-101 -82.5t-169.5 -30.5z" />
    <glyph glyph-name="uni0328" unicode="&#x328;" 
d="M-126 -468q-89 0 -144 46.5t-55 131.5q0 66 28.5 117t77.5 93.5t111 81.5l156 -2q-44 -35 -89 -74.5t-74.5 -84.5t-29.5 -97q0 -32 17.5 -48.5t47.5 -16.5q25 0 47.5 4t45.5 10v-141q-31 -9 -65 -14.5t-74 -5.5z" />
    <glyph glyph-name="tonos" unicode="&#x384;" horiz-adv-x="1141" 
d="M593 1241v29q20 37 42.5 84t45 97.5t42.5 99.5t35 90h230v-26q-19 -36 -47 -82t-62 -96.5t-70.5 -100.5t-72.5 -95h-143z" />
    <glyph glyph-name="dieresistonos" unicode="&#x385;" horiz-adv-x="1022" 
d="M601 1388v24q22 40 46.5 93.5t48.5 109t41 101.5h222v-20q-29 -44 -68.5 -96.5t-85.5 -106.5t-95 -105h-109zM426 1284q-43 0 -72 23t-29 73q0 60 32.5 98t90.5 38q45 0 72 -22.5t27 -70.5q0 -64 -33 -101.5t-88 -37.5zM936 1284q-42 0 -71 23t-29 73q0 60 32.5 98
t90.5 38q43 0 71 -22.5t28 -70.5q0 -64 -33 -101.5t-89 -37.5z" />
    <glyph glyph-name="Alphatonos" unicode="&#x386;" horiz-adv-x="1229" 
d="M-107 0l784 1462h275l166 -1462h-232l-41 407h-489l-210 -407h-253zM459 613h370l-33 359q-5 67 -11 141.5t-6 141.5h-6q-25 -65 -58 -134.5t-71 -142.5zM89 1063v29q20 37 42.5 84t45 97.5t42.5 99.5t35 90h230v-26q-19 -36 -47 -82t-62 -96.5t-70.5 -100.5t-72.5 -95
h-143z" />
    <glyph glyph-name="anoteleia" unicode="&#x387;" horiz-adv-x="551" 
d="M338 830q-66 0 -96.5 35t-30.5 86q0 69 40.5 124t134.5 55q55 0 88.5 -32t33.5 -91q0 -72 -44.5 -124.5t-125.5 -52.5z" />
    <glyph glyph-name="Epsilontonos" unicode="&#x388;" horiz-adv-x="1288" 
d="M275 0l309 1462h779l-43 -202h-542l-84 -397h507l-42 -201h-507l-98 -459h542l-43 -203h-778zM86 1062v29q20 37 42.5 84t45 97.5t42.5 99.5t35 90h230v-26q-19 -36 -47 -82t-62 -96.5t-70.5 -100.5t-72.5 -95h-143z" />
    <glyph glyph-name="Etatonos" unicode="&#x389;" horiz-adv-x="1604" 
d="M261 0l309 1462h237l-127 -598h570l126 598h236l-309 -1462h-237l140 660h-569l-140 -660h-236zM76 1062v29q20 37 42.5 84t45 97.5t42.5 99.5t35 90h230v-26q-19 -36 -47 -82t-62 -96.5t-70.5 -100.5t-72.5 -95h-143z" />
    <glyph glyph-name="Iotatonos" unicode="&#x38a;" horiz-adv-x="808" 
d="M272 0l311 1462h236l-312 -1462h-235zM76 1062v29q20 37 42.5 84t45 97.5t42.5 99.5t35 90h230v-26q-19 -36 -47 -82t-62 -96.5t-70.5 -100.5t-72.5 -95h-143z" />
    <glyph glyph-name="Omicrontonos" unicode="&#x38c;" horiz-adv-x="1624" 
d="M817 -20q-177 0 -297.5 69.5t-182 196.5t-61.5 297q0 120 21.5 235.5t63.5 220.5t105.5 194t147.5 154.5t188.5 101.5t228.5 36q256 0 392.5 -151t136.5 -410q0 -120 -19.5 -236.5t-60 -222t-101.5 -194t-143.5 -153.5t-187 -101.5t-231.5 -36.5zM831 185q73 0 137 26
t117.5 73.5t96 114.5t72 149t45.5 176.5t16 197.5q0 167 -78.5 263t-223.5 96q-75 0 -140.5 -26.5t-120.5 -76t-97.5 -117t-72.5 -149.5t-45.5 -174.5t-15.5 -192.5q0 -114 36.5 -195t106 -123t167.5 -42zM76 1062v29q20 37 42.5 84t45 97.5t42.5 99.5t35 90h230v-26
q-19 -36 -47 -82t-62 -96.5t-70.5 -100.5t-72.5 -95h-143z" />
    <glyph glyph-name="Upsilontonos" unicode="&#x38e;" horiz-adv-x="1393" 
d="M605 0l119 555l-239 907h240l156 -668l434 668h267l-624 -910l-116 -552h-237zM34 1062v29q20 37 42.5 84t45 97.5t42.5 99.5t35 90h230v-26q-19 -36 -47 -82t-62 -96.5t-70.5 -100.5t-72.5 -95h-143z" />
    <glyph glyph-name="Omegatonos" unicode="&#x38f;" horiz-adv-x="1678" 
d="M86 1062v29q20 37 42.5 84t45 97.5t42.5 99.5t35 90h230v-26q-19 -36 -47 -82t-62 -96.5t-70.5 -100.5t-72.5 -95h-143zM139 0l41 205h362q-55 44 -105.5 114t-82 168t-31.5 226q0 111 27 221.5t83 209.5t142.5 176t205.5 121t272 44q187 0 311.5 -71.5t187 -194.5
t62.5 -278q0 -144 -36 -259t-98 -205.5t-139 -157.5t-159 -114h367l-42 -205h-613l42 205q102 57 182.5 130.5t136.5 162.5t85 193t29 223q0 112 -36.5 194.5t-109.5 127.5t-185 45q-98 0 -174.5 -33.5t-132.5 -92t-92.5 -136t-54 -166t-17.5 -180.5q0 -161 46.5 -272.5
t134.5 -195.5l-42 -205h-567z" />
    <glyph glyph-name="iotadieresistonos" unicode="&#x390;" horiz-adv-x="691" 
d="M368 -20q-119 0 -193.5 54.5t-74.5 192.5q0 27 5 62.5t16 88.5l154 729h234l-156 -741q-6 -28 -10 -54t-4 -46q0 -45 23.5 -70.5t74.5 -25.5q37 0 72 8t78 22v-176q-36 -17 -95.5 -30.5t-123.5 -13.5zM372 1388v24q22 40 46.5 93.5t48.5 109t41 101.5h222v-20
q-29 -44 -68.5 -96.5t-85.5 -106.5t-95 -105h-109zM197 1284q-43 0 -72 23t-29 73q0 60 32.5 98t90.5 38q45 0 72 -22.5t27 -70.5q0 -64 -33 -101.5t-88 -37.5zM707 1284q-42 0 -71 23t-29 73q0 60 32.5 98t90.5 38q43 0 71 -22.5t28 -70.5q0 -64 -33 -101.5t-89 -37.5z" />
    <glyph glyph-name="Alpha" unicode="&#x391;" horiz-adv-x="1217" 
d="M-119 0l784 1462h275l166 -1462h-232l-41 407h-489l-210 -407h-253zM447 613h370l-33 359q-5 67 -11 141.5t-6 141.5h-6q-25 -65 -58 -134.5t-71 -142.5z" />
    <glyph glyph-name="Beta" unicode="&#x392;" horiz-adv-x="1250" 
d="M70 0l309 1462h402q138 0 238 -34t154.5 -106t54.5 -188q0 -99 -39.5 -175.5t-112 -126t-173.5 -69.5v-9q101 -27 164 -99.5t63 -188.5q0 -158 -74.5 -261.5t-203 -154t-292.5 -50.5h-490zM349 201h224q96 0 166.5 30t109 89t38.5 145q0 91 -56.5 146t-180.5 55h-202z
M488 859h200q85 0 151.5 24.5t105 76t38.5 131.5q0 84 -53.5 128t-170.5 44h-185z" />
    <glyph glyph-name="Gamma" unicode="&#x393;" horiz-adv-x="1005" 
d="M70 0l309 1462h779l-43 -202h-544l-267 -1260h-234z" />
    <glyph glyph-name="uni0394" unicode="&#x394;" horiz-adv-x="1194" 
d="M-55 0l28 142l686 1323h262l149 -1327l-30 -138h-1095zM240 205h603l-79 762q-4 31 -6.5 64.5l-5 67t-4 66.5t-1.5 62q-15 -41 -33 -82t-38 -83t-43 -86z" />
    <glyph glyph-name="Epsilon" unicode="&#x395;" horiz-adv-x="1084" 
d="M70 0l309 1462h779l-43 -202h-542l-84 -397h507l-42 -201h-507l-98 -459h542l-43 -203h-778z" />
    <glyph glyph-name="Zeta" unicode="&#x396;" horiz-adv-x="1094" 
d="M-40 0l32 166l854 1092h-601l43 204h899l-33 -167l-856 -1091h648l-42 -204h-944z" />
    <glyph glyph-name="Eta" unicode="&#x397;" horiz-adv-x="1414" 
d="M71 0l309 1462h237l-127 -598h570l126 598h236l-309 -1462h-237l140 660h-569l-140 -660h-236z" />
    <glyph glyph-name="Theta" unicode="&#x398;" horiz-adv-x="1499" 
d="M692 -20q-178 0 -302 70t-188.5 199t-64.5 304q0 123 22 239.5t65 220.5t107 190.5t148.5 149.5t188.5 97.5t228 34.5q257 0 397.5 -154.5t140.5 -424.5q0 -123 -20.5 -239.5t-61 -219.5t-102.5 -188.5t-144.5 -148t-186 -96.5t-227.5 -34zM700 185q82 0 149.5 27.5
t122 77.5t95.5 118t68 149.5t40.5 172t13.5 185.5q0 168 -80.5 267t-228.5 99q-83 0 -152 -28.5t-124.5 -79.5t-97 -120t-69.5 -150.5t-41.5 -171t-13.5 -180.5q0 -111 37 -193.5t108.5 -127.5t172.5 -45zM518 644l41 200h491l-42 -200h-490z" />
    <glyph glyph-name="Iota" unicode="&#x399;" horiz-adv-x="605" 
d="M69 0l311 1462h236l-312 -1462h-235z" />
    <glyph glyph-name="Kappa" unicode="&#x39a;" horiz-adv-x="1201" 
d="M70 0l309 1462h237l-154 -713l141 171l500 542h283l-618 -670l322 -792h-262l-253 656l-153 -102l-116 -554h-236z" />
    <glyph glyph-name="Lambda" unicode="&#x39b;" horiz-adv-x="1189" 
d="M-119 0l775 1465h260l163 -1465h-231l-87 895q-7 71 -11.5 163t-6.5 170q-27 -77 -65.5 -161t-75.5 -155l-468 -912h-253z" />
    <glyph glyph-name="Mu" unicode="&#x39c;" horiz-adv-x="1758" 
d="M69 0l309 1462h321l109 -1153h8l609 1153h341l-307 -1462h-225l169 800q16 76 34 151.5t35.5 143.5t31.5 119h-7l-644 -1214h-207l-114 1214h-8q-4 -43 -15 -112t-25 -148.5t-30 -154.5l-168 -799h-217z" />
    <glyph glyph-name="Nu" unicode="&#x39d;" horiz-adv-x="1494" 
d="M69 0l309 1462h267l402 -1150h6q7 46 18 113.5t25 140.5t27 135l162 761h217l-309 -1462h-260l-411 1167h-7q-3 -23 -10 -69.5t-16.5 -106.5t-20.5 -122t-23 -115l-159 -754h-217z" />
    <glyph glyph-name="Xi" unicode="&#x39e;" horiz-adv-x="1063" 
d="M-34 0l40 203h896l-43 -203h-893zM226 662l43 201h654l-43 -201h-654zM270 1260l43 202h819l-43 -202h-819z" />
    <glyph glyph-name="Omicron" unicode="&#x39f;" horiz-adv-x="1486" 
d="M678 -20q-177 0 -297.5 69.5t-182 196.5t-61.5 297q0 120 21.5 235.5t63.5 220.5t105.5 194t147.5 154.5t188.5 101.5t228.5 36q256 0 392.5 -151t136.5 -410q0 -120 -19.5 -236.5t-60 -222t-101.5 -194t-143.5 -153.5t-187 -101.5t-231.5 -36.5zM692 185q73 0 137 26
t117.5 73.5t96 114.5t72 149t45.5 176.5t16 197.5q0 167 -78.5 263t-223.5 96q-75 0 -140.5 -26.5t-120.5 -76t-97.5 -117t-72.5 -149.5t-45.5 -174.5t-15.5 -192.5q0 -114 36.5 -195t106 -123t167.5 -42z" />
    <glyph glyph-name="Pi" unicode="&#x3a0;" horiz-adv-x="1406" 
d="M70 0l309 1462h1036l-309 -1462h-238l267 1258h-562l-267 -1258h-236z" />
    <glyph glyph-name="Rho" unicode="&#x3a1;" horiz-adv-x="1204" 
d="M70 0l309 1462h368q167 0 268.5 -50t148 -140.5t46.5 -211.5q0 -126 -44.5 -221.5t-127.5 -160t-200.5 -97t-263.5 -32.5h-152l-116 -549h-236zM465 747h134q114 0 197 34.5t128.5 103t45.5 168.5q0 109 -60 159.5t-181 50.5h-155z" />
    <glyph glyph-name="Sigma" unicode="&#x3a3;" horiz-adv-x="1093" 
d="M-36 0l38 191l546 560l-303 528l38 183h884l-43 -202h-617l300 -526l-514 -531h664l-42 -203h-951z" />
    <glyph glyph-name="Tau" unicode="&#x3a4;" horiz-adv-x="1055" 
d="M291 0l266 1258h-380l43 204h998l-42 -204h-381l-266 -1258h-238z" />
    <glyph glyph-name="Upsilon" unicode="&#x3a5;" horiz-adv-x="1096" 
d="M308 0l119 555l-239 907h240l156 -668l434 668h267l-624 -910l-116 -552h-237z" />
    <glyph glyph-name="Phi" unicode="&#x3a6;" horiz-adv-x="1602" 
d="M557 -20l49 224q-162 12 -266 76t-154 167t-50 231q0 144 47 257t137 193t221 124.5t299 50.5l37 180h228l-37 -180q157 -11 261.5 -72t156.5 -161.5t52 -231.5q0 -130 -42.5 -243t-129.5 -199t-219 -136.5t-312 -54.5l-49 -225h-229zM646 396l152 713q-103 -3 -182 -35
t-132.5 -88t-81 -133t-27.5 -171q0 -85 31 -148t91.5 -98.5t148.5 -39.5zM875 396q106 7 185.5 41t133 91.5t80 135t26.5 169.5q0 80 -30.5 141t-91 96.5t-152.5 38.5z" />
    <glyph glyph-name="Chi" unicode="&#x3a7;" horiz-adv-x="1156" 
d="M-112 0l588 769l-250 693h245l179 -544l405 544h264l-550 -711l274 -751h-255l-194 593l-442 -593h-264z" />
    <glyph glyph-name="Psi" unicode="&#x3a8;" horiz-adv-x="1594" 
d="M566 0l95 441h-14q-165 0 -265.5 55t-146 145t-45.5 195q0 37 5 87.5t18 111.5l90 427h235l-96 -456q-9 -44 -13.5 -80t-4.5 -66q0 -77 28.5 -126t87 -72t145.5 -23h16l175 823h227l-174 -823h15q114 1 192.5 36.5t127.5 111t74 193.5l102 482h237l-108 -507
q-24 -117 -73 -211.5t-127.5 -162t-191 -104t-262.5 -36.5h-28l-93 -441h-228z" />
    <glyph glyph-name="uni03A9" unicode="&#x3a9;" horiz-adv-x="1508" 
d="M-30 0l41 205h362q-55 44 -105.5 114t-82 168t-31.5 226q0 111 27 221.5t83 209.5t142.5 176t205.5 121t272 44q187 0 311.5 -71.5t187 -194.5t62.5 -278q0 -144 -36 -259t-98 -205.5t-139 -157.5t-159 -114h367l-42 -205h-613l42 205q102 57 182.5 130.5t136.5 162.5
t85 193t29 223q0 112 -36.5 194.5t-109.5 127.5t-185 45q-98 0 -174.5 -33.5t-132.5 -92t-92.5 -136t-54 -166t-17.5 -180.5q0 -161 46.5 -272.5t134.5 -195.5l-42 -205h-567z" />
    <glyph glyph-name="Iotadieresis" unicode="&#x3aa;" horiz-adv-x="605" 
d="M69 0l311 1462h236l-312 -1462h-235zM728 1640q-45 0 -74.5 23t-29.5 73q0 60 33 97.5t94 37.5q45 0 73 -22t28 -70q0 -64 -33.5 -101.5t-90.5 -37.5zM353 1640q-46 0 -75 23t-29 73q0 60 32.5 97.5t93.5 37.5q31 0 53.5 -9.5t35.5 -30t13 -52.5q0 -64 -33 -101.5
t-91 -37.5z" />
    <glyph glyph-name="Upsilondieresis" unicode="&#x3ab;" horiz-adv-x="1096" 
d="M308 0l119 555l-239 907h240l156 -668l434 668h267l-624 -910l-116 -552h-237zM959 1640q-45 0 -74.5 23t-29.5 73q0 60 33 97.5t94 37.5q45 0 73 -22t28 -70q0 -64 -33.5 -101.5t-90.5 -37.5zM584 1640q-46 0 -75 23t-29 73q0 60 32.5 97.5t93.5 37.5q31 0 53.5 -9.5
t35.5 -30t13 -52.5q0 -64 -33 -101.5t-91 -37.5z" />
    <glyph glyph-name="alphatonos" unicode="&#x3ac;" horiz-adv-x="1203" 
d="M395 -20q-131 0 -215.5 96.5t-84.5 294.5q0 125 24.5 238t70.5 208t111 164.5t146.5 108t176.5 38.5q113 0 175.5 -53.5t98.5 -130.5h9q11 24 27 54t34.5 59.5t37.5 49.5h195q-23 -44 -52 -115.5t-56.5 -158.5t-48.5 -178l-71 -329q-5 -23 -7.5 -43.5t-2.5 -36.5
q0 -35 17 -52.5t46 -17.5q15 0 33 3.5t33 8.5v-180q-19 -10 -58 -19t-84 -9q-61 0 -106 20t-71 62t-33 107h-7q-41 -50 -88.5 -93t-108.5 -69.5t-141 -26.5zM490 171q66 0 123.5 44t102.5 120.5t71 173.5q15 57 24 116.5t9 107.5q0 92 -43.5 147.5t-122.5 55.5
q-57 0 -106.5 -31t-89 -85.5t-67.5 -124.5t-43 -150t-15 -161q0 -107 40 -160t117 -53zM641 1241v29q20 37 42.5 84t45 97.5t42.5 99.5t35 90h230v-26q-19 -36 -47 -82t-62 -96.5t-70.5 -100.5t-72.5 -95h-143z" />
    <glyph glyph-name="epsilontonos" unicode="&#x3ad;" horiz-adv-x="985" 
d="M452 -20q-126 0 -216 35t-138 99.5t-48 153.5q0 97 40.5 160.5t111.5 100t162 51.5v7q-66 26 -112.5 80.5t-46.5 136.5q0 117 62.5 188t162.5 103t210 32q117 0 204 -20.5t158 -58.5l-76 -176q-58 31 -126.5 52t-151.5 21q-97 0 -162.5 -36.5t-65.5 -120.5
q0 -57 48.5 -90.5t151.5 -33.5h129l-36 -175h-133q-83 0 -148.5 -18.5t-102.5 -58t-37 -102.5q0 -64 48 -104.5t150 -40.5q107 0 190 27t152 62v-194q-64 -32 -159 -56t-221 -24zM567 1241v29q20 37 42.5 84t45 97.5t42.5 99.5t35 90h230v-26q-19 -36 -47 -82t-62 -96.5
t-70.5 -100.5t-72.5 -95h-143z" />
    <glyph glyph-name="etatonos" unicode="&#x3ae;" horiz-adv-x="1209" 
d="M599 -492l247 1164q9 39 13.5 70.5t4.5 58.5q0 65 -32.5 100t-99.5 35q-71 0 -139.5 -54.5t-124 -158t-86.5 -250.5l-100 -473h-234l235 1107h182l-24 -209h9q41 59 94 111.5t120.5 85.5t151.5 33q91 0 154 -35.5t96 -101t33 -159.5q0 -41 -6.5 -87.5t-15.5 -89.5
l-244 -1147h-234zM650 1241v29q20 37 42.5 84t45 97.5t42.5 99.5t35 90h230v-26q-19 -36 -47 -82t-62 -96.5t-70.5 -100.5t-72.5 -95h-143z" />
    <glyph glyph-name="iotatonos" unicode="&#x3af;" horiz-adv-x="691" 
d="M368 -20q-119 0 -193.5 54.5t-74.5 192.5q0 27 5 62.5t16 88.5l154 729h234l-156 -741q-6 -28 -10 -54t-4 -46q0 -45 23.5 -70.5t74.5 -25.5q37 0 72 8t78 22v-176q-36 -17 -95.5 -30.5t-123.5 -13.5zM325 1241v29q20 37 42.5 84t45 97.5t42.5 99.5t35 90h230v-26
q-19 -36 -47 -82t-62 -96.5t-70.5 -100.5t-72.5 -95h-143z" />
    <glyph glyph-name="upsilondieresistonos" unicode="&#x3b0;" horiz-adv-x="1223" 
d="M519 -20q-197 0 -295.5 99.5t-98.5 268.5q0 39 5.5 80t17.5 102l121 577h233l-121 -578q-13 -58 -17.5 -96t-4.5 -70q0 -99 47.5 -145.5t132.5 -46.5q71 0 125 35t94 99t67.5 151t44 192t23.5 221t7 238h234q0 -149 -12.5 -307t-47.5 -304.5t-103 -262.5t-178.5 -184.5
t-273.5 -68.5zM676 1388v24q22 40 46.5 93.5t48.5 109t41 101.5h222v-20q-29 -44 -68.5 -96.5t-85.5 -106.5t-95 -105h-109zM501 1284q-43 0 -72 23t-29 73q0 60 32.5 98t90.5 38q45 0 72 -22.5t27 -70.5q0 -64 -33 -101.5t-88 -37.5zM1011 1284q-42 0 -71 23t-29 73
q0 60 32.5 98t90.5 38q43 0 71 -22.5t28 -70.5q0 -64 -33 -101.5t-89 -37.5z" />
    <glyph glyph-name="alpha" unicode="&#x3b1;" horiz-adv-x="1203" 
d="M395 -20q-131 0 -215.5 96.5t-84.5 294.5q0 125 24.5 238t70.5 208t111 164.5t146.5 108t176.5 38.5q113 0 175.5 -53.5t98.5 -130.5h9q11 24 27 54t34.5 59.5t37.5 49.5h195q-23 -44 -52 -115.5t-56.5 -158.5t-48.5 -178l-71 -329q-5 -23 -7.5 -43.5t-2.5 -36.5
q0 -35 17 -52.5t46 -17.5q15 0 33 3.5t33 8.5v-180q-19 -10 -58 -19t-84 -9q-61 0 -106 20t-71 62t-33 107h-7q-41 -50 -88.5 -93t-108.5 -69.5t-141 -26.5zM490 171q66 0 123.5 44t102.5 120.5t71 173.5q15 57 24 116.5t9 107.5q0 92 -43.5 147.5t-122.5 55.5
q-57 0 -106.5 -31t-89 -85.5t-67.5 -124.5t-43 -150t-15 -161q0 -107 40 -160t117 -53z" />
    <glyph glyph-name="beta" unicode="&#x3b2;" horiz-adv-x="1230" 
d="M-56 -491l342 1611q29 136 88 236.5t161.5 155.5t260.5 55q126 0 215 -42t136.5 -120t47.5 -186q0 -113 -41 -196t-119.5 -135t-191.5 -74q114 -23 187.5 -105.5t73.5 -228.5q0 -88 -27.5 -176.5t-86.5 -161.5t-154.5 -117.5t-230.5 -44.5q-113 0 -185 31t-121 63
l-120 -565h-235zM570 170q74 0 128.5 25t91.5 68.5t55.5 100t18.5 119.5q0 112 -62 172t-188 60h-58l40 191h68q71 0 125.5 20t91.5 58t55.5 92t18.5 122q0 80 -45 131t-130 51q-75 0 -126 -34t-84 -99t-53 -159l-181 -841q40 -35 105.5 -56t128.5 -21z" />
    <glyph glyph-name="gamma" unicode="&#x3b3;" horiz-adv-x="996" 
d="M70 -492q17 85 43.5 169.5t62 169t78.5 167.5l-154 1093h232l60 -553q4 -39 7 -80t5 -83.5t3 -83.5t1 -79h7q30 79 72 168.5t77 158.5l288 552h250l-566 -1036q-56 -102 -97.5 -196t-71 -184.5t-49.5 -182.5h-248z" />
    <glyph glyph-name="delta" unicode="&#x3b4;" horiz-adv-x="1170" 
d="M485 -20q-144 0 -237 54.5t-138.5 143.5t-45.5 193q0 149 62 262t174 189t262 115q-69 56 -116.5 128.5t-47.5 165.5q0 106 52 181.5t144 115.5t210 40q122 0 215 -33t166 -80l-93 -168q-64 41 -135.5 70.5t-152.5 29.5q-82 0 -129.5 -39t-47.5 -111q0 -45 18.5 -79
t57.5 -69t99 -83q71 -57 126.5 -123.5t87 -146.5t31.5 -179q0 -124 -37.5 -229.5t-109.5 -183.5t-176.5 -121t-238.5 -43zM511 172q68 0 121.5 29.5t92 81.5t59 121t20.5 148q0 98 -36.5 165.5t-91.5 110.5q-76 -21 -143 -59.5t-117.5 -93t-79 -124.5t-28.5 -154
q0 -106 52 -165.5t151 -59.5z" />
    <glyph glyph-name="epsilon" unicode="&#x3b5;" horiz-adv-x="985" 
d="M452 -20q-126 0 -216 35t-138 99.5t-48 153.5q0 97 40.5 160.5t111.5 100t162 51.5v7q-66 26 -112.5 80.5t-46.5 136.5q0 117 62.5 188t162.5 103t210 32q117 0 204 -20.5t158 -58.5l-76 -176q-58 31 -126.5 52t-151.5 21q-97 0 -162.5 -36.5t-65.5 -120.5
q0 -57 48.5 -90.5t151.5 -33.5h129l-36 -175h-133q-83 0 -148.5 -18.5t-102.5 -58t-37 -102.5q0 -64 48 -104.5t150 -40.5q107 0 190 27t152 62v-194q-64 -32 -159 -56t-221 -24z" />
    <glyph glyph-name="zeta" unicode="&#x3b6;" horiz-adv-x="937" 
d="M355 -396q58 54 100.5 100.5t66 89t23.5 83.5q0 45 -37 73t-126 66q-97 42 -161 94.5t-95.5 126t-31.5 177.5q0 135 50.5 257.5t144 239.5t222 234.5t284.5 241.5q-49 -7 -105.5 -9.5t-109.5 -2.5h-232l40 181h725l-33 -154q-177 -146 -316 -273t-235.5 -241
t-146.5 -222.5t-50 -217.5q0 -66 21.5 -111.5t64 -78t107.5 -60.5q75 -33 132 -68.5t89 -85t32 -125.5q0 -63 -23 -117.5t-63 -102.5t-92 -95h-245z" />
    <glyph glyph-name="eta" unicode="&#x3b7;" horiz-adv-x="1209" 
d="M599 -492l247 1164q9 39 13.5 70.5t4.5 58.5q0 65 -32.5 100t-99.5 35q-71 0 -139.5 -54.5t-124 -158t-86.5 -250.5l-100 -473h-234l235 1107h182l-24 -209h9q41 59 94 111.5t120.5 85.5t151.5 33q91 0 154 -35.5t96 -101t33 -159.5q0 -41 -6.5 -87.5t-15.5 -89.5
l-244 -1147h-234z" />
    <glyph glyph-name="theta" unicode="&#x3b8;" horiz-adv-x="1158" 
d="M463 -20q-126 0 -206.5 53t-118.5 150.5t-38 231.5q0 58 5.5 126.5t17 142.5t28.5 148q40 173 93.5 309.5t126 231.5t169.5 145t223 50q114 0 193.5 -48t121.5 -146.5t42 -250.5q0 -55 -5 -119t-15.5 -136t-28.5 -153q-36 -165 -88 -300t-124.5 -232.5t-170.5 -150
t-225 -52.5zM483 160q59 0 108 33.5t90 100t76.5 167.5t66.5 235h-464q-15 -83 -23 -155.5t-8 -139.5q0 -119 37 -180t117 -61zM400 881h460q14 75 21.5 144t7.5 133q0 110 -36.5 170t-110.5 60q-58 0 -107.5 -33.5t-91.5 -98.5t-77.5 -159.5t-65.5 -215.5z" />
    <glyph glyph-name="iota" unicode="&#x3b9;" horiz-adv-x="691" 
d="M368 -20q-119 0 -193.5 54.5t-74.5 192.5q0 27 5 62.5t16 88.5l154 729h234l-156 -741q-6 -28 -10 -54t-4 -46q0 -45 23.5 -70.5t74.5 -25.5q37 0 72 8t78 22v-176q-36 -17 -95.5 -30.5t-123.5 -13.5z" />
    <glyph glyph-name="kappa" unicode="&#x3ba;" horiz-adv-x="1082" 
d="M47 0l234 1107h235l-58 -262q-14 -66 -33.5 -133.5t-35.5 -118.5h6l499 514h270l-486 -487l290 -620h-260l-210 471l-139 -101l-77 -370h-235z" />
    <glyph glyph-name="lambda" unicode="&#x3bb;" horiz-adv-x="1085" 
d="M844 -20q-67 0 -111.5 25t-71 77.5t-37.5 135.5l-38 314q-7 58 -11.5 131.5t-6.5 133.5q-13 -29 -25.5 -59t-26 -60.5t-28 -61t-30.5 -60.5l-307 -556h-253l620 1070l-15 122q-11 93 -42.5 136.5t-98.5 43.5q-27 0 -53 -3.5t-48 -8.5l-29 189q35 9 78 14.5t87 5.5
q107 0 173.5 -38t102.5 -112.5t49 -184.5l112 -904q7 -56 19 -90t30.5 -49t44.5 -15q13 0 30.5 2.5t35.5 8.5v-180q-26 -11 -64.5 -19t-85.5 -8z" />
    <glyph glyph-name="uni03BC" unicode="&#x3bc;" horiz-adv-x="1221" 
d="M-55 -491l338 1598h234l-140 -668q-9 -40 -13.5 -73t-4.5 -57q0 -65 34.5 -101.5t97.5 -36.5q73 0 140.5 54t122.5 157t86 249l102 476h232l-236 -1107h-180l22 194h-10q-38 -58 -85 -107t-105 -78t-129 -29q-56 0 -96.5 22.5t-63.5 62.5h-8q-5 -31 -11.5 -74.5
t-13.5 -87.5t-14 -77l-66 -317h-233z" />
    <glyph glyph-name="nu" unicode="&#x3bd;" horiz-adv-x="1068" 
d="M239 0l-138 1107h231l70 -639q7 -66 11 -133t6 -125q111 113 192 247t139 295t100 355h236q-43 -219 -117 -411.5t-194.5 -364.5t-300.5 -331h-235z" />
    <glyph glyph-name="xi" unicode="&#x3be;" horiz-adv-x="930" 
d="M350 -396q56 55 98 100.5t65 88t23 84.5q0 45 -34.5 73.5t-130.5 67.5q-97 41 -160 92.5t-93.5 119.5t-30.5 158q0 116 47.5 202t136 143.5t209.5 86.5v6q-94 25 -151.5 85t-57.5 151q0 67 26 120t72 92.5t106.5 67.5t129.5 45q-61 -5 -113 -8.5t-113 -3.5h-60l39 181
h688l-37 -169h-17q-65 0 -133 -10.5t-131 -32.5t-113 -57.5t-79.5 -85t-29.5 -115.5q0 -90 65.5 -139t200.5 -49h100l-37 -170h-76q-128 0 -226.5 -35.5t-154 -103.5t-55.5 -166q0 -59 21 -99t65 -69.5t115 -58.5q67 -28 123.5 -63t91.5 -85.5t35 -127.5q0 -63 -23 -117.5
t-62.5 -103t-91.5 -95.5h-247z" />
    <glyph glyph-name="omicron" unicode="&#x3bf;" horiz-adv-x="1176" 
d="M512 -18q-126 0 -220 52t-145.5 147.5t-51.5 226.5q0 111 23.5 216t69.5 196t115 159.5t160 107t204 38.5q129 0 222 -52t143 -149t50 -232q0 -108 -22.5 -211t-67.5 -193.5t-113.5 -159t-160 -107.5t-206.5 -39zM529 174q56 0 104.5 25.5t87.5 73t66.5 113t42.5 145.5
t15 171q0 61 -18 113.5t-59.5 85t-110.5 32.5q-62 0 -113.5 -29.5t-91 -81.5t-66.5 -119.5t-41 -144t-14 -154.5q0 -111 50.5 -170.5t147.5 -59.5z" />
    <glyph glyph-name="pi" unicode="&#x3c0;" horiz-adv-x="1353" 
d="M982 -20q-110 0 -169.5 55.5t-59.5 157.5q0 25 4.5 56t11.5 70l124 602h-337l-197 -921h-237l198 921h-230l21 110l195 76h1086l-38 -186h-226l-124 -608q-5 -21 -7.5 -41t-2.5 -33q0 -36 18.5 -53.5t53.5 -17.5q30 0 57.5 6.5t51.5 17.5v-173q-35 -16 -82 -27.5
t-111 -11.5z" />
    <glyph glyph-name="rho" unicode="&#x3c1;" horiz-adv-x="1195" 
d="M-55 -491l233 1105q32 149 89.5 264.5t160.5 182t271 66.5q130 0 219 -52t135 -148.5t46 -230.5q0 -107 -21 -210.5t-63.5 -194.5t-105.5 -161t-147 -110t-189 -40q-94 0 -163 35t-117 90q-11 -78 -24 -151t-30 -156l-62 -289h-232zM543 171q65 0 116.5 34t89.5 91
t63.5 126.5t38 141.5t12.5 135q0 110 -44 173.5t-135 63.5q-75 0 -127.5 -40.5t-87.5 -118t-59 -189.5l-68 -318q33 -44 84.5 -71.5t116.5 -27.5z" />
    <glyph glyph-name="uni03C2" unicode="&#x3c2;" horiz-adv-x="938" 
d="M357 -401q55 53 97 100.5t66 91.5t24 86q0 28 -12 49.5t-45.5 42.5t-98.5 48q-82 34 -148 85.5t-105.5 132t-39.5 200.5q0 97 23.5 196t70.5 188t117.5 158.5t164.5 110t211 40.5q89 0 161 -17t133 -45l-70 -185q-47 22 -104 38.5t-121 16.5q-67 0 -122 -28t-97.5 -76
t-71 -109t-43 -127.5t-14.5 -131.5q0 -78 23.5 -128t69 -83t110.5 -60q68 -29 123 -63t88 -84.5t33 -128.5q0 -62 -22.5 -116.5t-62 -103.5t-92.5 -98h-246z" />
    <glyph glyph-name="sigma" unicode="&#x3c3;" horiz-adv-x="1228" 
d="M514 -18q-189 0 -304 111t-115 334q0 116 25.5 219t77 187.5t129.5 146t182.5 94.5t235.5 33h538l-37 -182h-275q35 -52 63 -131.5t28 -194.5q0 -67 -17 -149t-55 -164.5t-101 -151t-156 -110.5t-219 -42zM529 174q62 0 111 26t86 72.5t60.5 108.5t35.5 135t12 150
q0 81 -16 146t-40 113h-50q-106 0 -181 -40t-123 -109t-70.5 -158t-22.5 -186q0 -130 51 -194t147 -64z" />
    <glyph glyph-name="tau" unicode="&#x3c4;" horiz-adv-x="944" 
d="M522 -20q-122 0 -198 54.5t-76 192.5q0 29 5 68t13 78l117 548h-295l22 109l190 77h693l-39 -186h-337l-118 -550q-6 -30 -10 -57t-4 -48q0 -46 25.5 -71t76.5 -25q38 0 74.5 8.5t79.5 22.5v-177q-37 -17 -96.5 -30.5t-122.5 -13.5z" />
    <glyph glyph-name="upsilon" unicode="&#x3c5;" horiz-adv-x="1223" 
d="M519 -20q-197 0 -295.5 99.5t-98.5 268.5q0 39 5.5 80t17.5 102l121 577h233l-121 -578q-13 -58 -17.5 -96t-4.5 -70q0 -99 47.5 -145.5t132.5 -46.5q71 0 125 35t94 99t67.5 151t44 192t23.5 221t7 238h234q0 -149 -12.5 -307t-47.5 -304.5t-103 -262.5t-178.5 -184.5
t-273.5 -68.5z" />
    <glyph glyph-name="phi" unicode="&#x3c6;" horiz-adv-x="1473" 
d="M385 -491l102 477q-114 15 -202.5 70t-139.5 151.5t-51 232.5q0 145 40.5 262.5t118.5 220t189 200.5l151 -134q-84 -82 -143 -165.5t-89.5 -174.5t-30.5 -196q0 -91 26 -150t70.5 -90t99.5 -41l123 579q40 181 129 278.5t260 97.5q167 0 254 -107.5t87 -292.5
q0 -118 -27 -225.5t-80 -199.5t-133.5 -161.5t-187.5 -111.5t-241 -49l-97 -471h-228zM752 173q85 9 149.5 47t110.5 96t75 128.5t42.5 146t13.5 148.5q0 103 -29 154.5t-86 51.5t-94 -48.5t-60 -156.5z" />
    <glyph glyph-name="chi" unicode="&#x3c7;" horiz-adv-x="1080" 
d="M-243 -492l623 865l-59 408q-11 77 -34 108.5t-67 31.5q-18 0 -34.5 -4t-35.5 -11l-41 181q35 15 80 24.5t88 9.5q118 0 173.5 -68.5t74.5 -205.5l35 -273l366 533h254l-561 -780l72 -483q12 -74 38 -107t78 -33q20 0 42.5 3.5t48.5 10.5v-182q-34 -12 -73.5 -20
t-87.5 -8q-84 0 -135.5 34t-79.5 98t-41 155l-45 332l-421 -619h-258z" />
    <glyph glyph-name="psi" unicode="&#x3c8;" horiz-adv-x="1563" 
d="M439 -492l100 470q-212 20 -310.5 124.5t-98.5 264.5q0 42 5.5 85t14.5 92l119 563h233l-119 -569q-9 -43 -13.5 -81t-4.5 -71q0 -95 51 -153t163 -67l294 1388h225l-294 -1384q98 12 171 57t123.5 123t82 188.5t45.5 253t14 315.5h236q0 -179 -17 -342t-61 -301
t-124 -242t-205 -167.5t-305 -76.5l-100 -470h-225z" />
    <glyph glyph-name="omega" unicode="&#x3c9;" horiz-adv-x="1590" 
d="M409 -20q-157 0 -236 106t-79 278q0 129 32.5 256.5t89.5 250t132 236.5h239q-74 -109 -133.5 -232t-95 -251t-35.5 -254q0 -105 34.5 -153.5t96.5 -48.5q80 0 127.5 68t74.5 194l64 302h225l-64 -291q-5 -24 -8.5 -48t-6 -45.5t-2.5 -39.5q0 -67 29 -103.5t87 -36.5
q60 0 107 39t81.5 105t57 149t33.5 172t11 172q0 85 -7 159t-21 143h224q14 -61 22 -138.5t8 -149.5q0 -119 -18 -239t-55.5 -227.5t-98.5 -191.5t-146.5 -132.5t-198.5 -48.5q-72 0 -123 24t-83.5 67.5t-48.5 100.5q-54 -90 -128.5 -141t-186.5 -51z" />
    <glyph glyph-name="iotadieresis" unicode="&#x3ca;" horiz-adv-x="691" 
d="M368 -20q-119 0 -193.5 54.5t-74.5 192.5q0 27 5 62.5t16 88.5l154 729h234l-156 -741q-6 -28 -10 -54t-4 -46q0 -45 23.5 -70.5t74.5 -25.5q37 0 72 8t78 22v-176q-36 -17 -95.5 -30.5t-123.5 -13.5zM636 1284q-45 0 -74.5 23t-29.5 73q0 60 33 97.5t94 37.5
q45 0 73 -22t28 -70q0 -64 -33.5 -101.5t-90.5 -37.5zM261 1284q-46 0 -75 23t-29 73q0 60 32.5 97.5t93.5 37.5q31 0 53.5 -9.5t35.5 -30t13 -52.5q0 -64 -33 -101.5t-91 -37.5z" />
    <glyph glyph-name="upsilondieresis" unicode="&#x3cb;" horiz-adv-x="1223" 
d="M519 -20q-197 0 -295.5 99.5t-98.5 268.5q0 39 5.5 80t17.5 102l121 577h233l-121 -578q-13 -58 -17.5 -96t-4.5 -70q0 -99 47.5 -145.5t132.5 -46.5q71 0 125 35t94 99t67.5 151t44 192t23.5 221t7 238h234q0 -149 -12.5 -307t-47.5 -304.5t-103 -262.5t-178.5 -184.5
t-273.5 -68.5zM941 1284q-45 0 -74.5 23t-29.5 73q0 60 33 97.5t94 37.5q45 0 73 -22t28 -70q0 -64 -33.5 -101.5t-90.5 -37.5zM566 1284q-46 0 -75 23t-29 73q0 60 32.5 97.5t93.5 37.5q31 0 53.5 -9.5t35.5 -30t13 -52.5q0 -64 -33 -101.5t-91 -37.5z" />
    <glyph glyph-name="omicrontonos" unicode="&#x3cc;" horiz-adv-x="1176" 
d="M512 -18q-126 0 -220 52t-145.5 147.5t-51.5 226.5q0 111 23.5 216t69.5 196t115 159.5t160 107t204 38.5q129 0 222 -52t143 -149t50 -232q0 -108 -22.5 -211t-67.5 -193.5t-113.5 -159t-160 -107.5t-206.5 -39zM529 174q56 0 104.5 25.5t87.5 73t66.5 113t42.5 145.5
t15 171q0 61 -18 113.5t-59.5 85t-110.5 32.5q-62 0 -113.5 -29.5t-91 -81.5t-66.5 -119.5t-41 -144t-14 -154.5q0 -111 50.5 -170.5t147.5 -59.5zM598 1241v29q20 37 42.5 84t45 97.5t42.5 99.5t35 90h230v-26q-19 -36 -47 -82t-62 -96.5t-70.5 -100.5t-72.5 -95h-143z" />
    <glyph glyph-name="upsilontonos" unicode="&#x3cd;" horiz-adv-x="1223" 
d="M519 -20q-197 0 -295.5 99.5t-98.5 268.5q0 39 5.5 80t17.5 102l121 577h233l-121 -578q-13 -58 -17.5 -96t-4.5 -70q0 -99 47.5 -145.5t132.5 -46.5q71 0 125 35t94 99t67.5 151t44 192t23.5 221t7 238h234q0 -149 -12.5 -307t-47.5 -304.5t-103 -262.5t-178.5 -184.5
t-273.5 -68.5zM629 1241v29q20 37 42.5 84t45 97.5t42.5 99.5t35 90h230v-26q-19 -36 -47 -82t-62 -96.5t-70.5 -100.5t-72.5 -95h-143z" />
    <glyph glyph-name="omegatonos" unicode="&#x3ce;" horiz-adv-x="1590" 
d="M409 -20q-157 0 -236 106t-79 278q0 129 32.5 256.5t89.5 250t132 236.5h239q-74 -109 -133.5 -232t-95 -251t-35.5 -254q0 -105 34.5 -153.5t96.5 -48.5q80 0 127.5 68t74.5 194l64 302h225l-64 -291q-5 -24 -8.5 -48t-6 -45.5t-2.5 -39.5q0 -67 29 -103.5t87 -36.5
q60 0 107 39t81.5 105t57 149t33.5 172t11 172q0 85 -7 159t-21 143h224q14 -61 22 -138.5t8 -149.5q0 -119 -18 -239t-55.5 -227.5t-98.5 -191.5t-146.5 -132.5t-198.5 -48.5q-72 0 -123 24t-83.5 67.5t-48.5 100.5q-54 -90 -128.5 -141t-186.5 -51zM824 1241v29
q20 37 42.5 84t45 97.5t42.5 99.5t35 90h230v-26q-19 -36 -47 -82t-62 -96.5t-70.5 -100.5t-72.5 -95h-143z" />
    <glyph glyph-name="uni03D1" unicode="&#x3d1;" horiz-adv-x="1292" 
d="M497 -20q-123 0 -200.5 39.5t-113.5 104t-36 140.5q0 57 14.5 108.5t35.5 104.5q12 36 23 68.5t11 60.5q0 27 -14.5 42.5t-41.5 15.5q-21 0 -47.5 -8t-45.5 -18l5 171q34 14 81 26.5t106 12.5q93 0 139.5 -48.5t46.5 -124.5q0 -55 -14.5 -106.5t-31.5 -100.5
q-16 -45 -28 -88t-12 -84q0 -59 34 -94.5t110 -35.5q69 0 125.5 35t102 96.5t80.5 142.5t61 174t44 190q-179 6 -295.5 57.5t-172.5 137t-56 192.5q0 117 50 201.5t139.5 130t208.5 45.5q136 0 221.5 -63t126.5 -174.5t41 -260.5q0 -21 -0.5 -45t-2.5 -42h145l-38 -178h-132
q-18 -111 -50.5 -227.5t-83.5 -223t-125 -191t-175 -134t-235 -49.5zM954 983q3 21 4.5 50.5t1.5 56.5q0 147 -43.5 221t-121.5 74q-53 0 -88 -24t-52.5 -66t-17.5 -95q0 -69 34.5 -117t105 -73t177.5 -27z" />
    <glyph glyph-name="uni03D2" unicode="&#x3d2;" horiz-adv-x="1111" 
d="M305 0l119 554l-237 908h240l154 -669q37 71 78.5 145t83 144.5t80.5 131t72 103.5q63 79 125.5 118.5t146.5 39.5q39 0 71.5 -6t63.5 -16l-46 -182q-12 4 -27.5 8t-35.5 4q-33 0 -64.5 -21.5t-71.5 -73.5q-26 -34 -65.5 -92t-91 -140t-113 -186t-132.5 -229l-113 -541
h-237z" />
    <glyph glyph-name="uni03D6" unicode="&#x3d6;" horiz-adv-x="1770" 
d="M497 -20q-155 0 -237 100.5t-82 278.5q0 95 23.5 193t67.5 192.5t102 177.5h-270l22 108l194 77h1499l-39 -185h-241q10 -46 17 -105t7 -127q0 -96 -18.5 -196t-56.5 -192t-97 -164.5t-139.5 -115t-183.5 -42.5q-112 0 -173 53.5t-84 142.5q-52 -90 -126 -143t-185 -53z
M535 168q57 0 96 33t64.5 92t42.5 136l36 165h223l-32 -152q-5 -22 -9 -46t-6.5 -46.5t-2.5 -42.5q0 -66 29 -102.5t86 -36.5q54 0 97.5 31.5t76.5 86.5t54.5 127.5t32.5 154t11 166.5q0 59 -4 105t-11 83h-727q-52 -87 -94 -180t-66 -188t-24 -190q0 -94 32 -145t95 -51z
" />
    <glyph glyph-name="uni0400" unicode="&#x400;" horiz-adv-x="1084" 
d="M70 0l309 1462h779l-43 -202h-542l-84 -397h507l-42 -201h-507l-98 -459h542l-43 -203h-778zM783 1597q-40 40 -85.5 95t-84.5 111.5t-62 100.5v21h245q14 -48 34.5 -100t45.5 -103.5t51 -99.5v-25h-144z" />
    <glyph glyph-name="uni0401" unicode="&#x401;" horiz-adv-x="1084" 
d="M70 0l309 1462h779l-43 -202h-542l-84 -397h507l-42 -201h-507l-98 -459h542l-43 -203h-778zM987 1640q-45 0 -74.5 23t-29.5 73q0 60 33 97.5t94 37.5q45 0 73 -22t28 -70q0 -64 -33.5 -101.5t-90.5 -37.5zM612 1640q-46 0 -75 23t-29 73q0 60 32.5 97.5t93.5 37.5
q31 0 53.5 -9.5t35.5 -30t13 -52.5q0 -64 -33 -101.5t-91 -37.5z" />
    <glyph glyph-name="uni0402" unicode="&#x402;" horiz-adv-x="1446" 
d="M870 -20q-47 0 -92 8.5t-76 21.5v201q36 -15 70.5 -22.5t67.5 -7.5q58 0 97 20.5t64 64t38 111.5l15 77q6 28 10 56.5t4 56.5q0 70 -39.5 106t-131.5 36h-262l-151 -709h-237l268 1258h-338l43 204h986l-43 -204h-411l-73 -345h257q185 0 277 -84t92 -232q0 -32 -3 -71.5
t-10 -75.5l-20 -103q-24 -127 -72.5 -208.5t-129 -120t-200.5 -38.5z" />
    <glyph glyph-name="uni0403" unicode="&#x403;" horiz-adv-x="1005" 
d="M70 0l309 1462h779l-43 -202h-544l-267 -1260h-234zM670 1597v25q35 39 76.5 92t81.5 108.5t70 102.5h262v-18q-22 -28 -61.5 -69t-88 -86t-96.5 -85.5t-88 -69.5h-156z" />
    <glyph glyph-name="uni0404" unicode="&#x404;" horiz-adv-x="1229" 
d="M664 -20q-175 0 -292 70.5t-176 198t-59 298.5q0 132 30.5 265.5t92 254.5t155.5 214.5t221 148t288 54.5q115 0 210 -23t181 -70l-93 -195q-64 35 -137.5 59.5t-160.5 24.5q-98 0 -178 -33.5t-142 -92.5t-106 -136.5t-71 -166.5h580l-41 -202h-579q-3 -24 -4 -50.5
t-1 -52.5q0 -115 36.5 -196t109.5 -123t181 -42q57 0 113 8.5t111 24.5t109 35v-204q-59 -23 -118.5 -38.5t-123 -23t-136.5 -7.5z" />
    <glyph glyph-name="uni0405" unicode="&#x405;" horiz-adv-x="1059" 
d="M390 -20q-110 0 -196.5 20t-153.5 58v220q77 -41 163.5 -68.5t188.5 -27.5q60 0 113 12.5t94 39.5t64 68.5t23 98.5q0 58 -24 100t-71 79.5t-118 81.5q-68 44 -127 97t-95 123.5t-36 167.5q0 100 36.5 180t103 136.5t156 86.5t194.5 30q114 0 205 -23.5t176 -68.5
l-87 -188q-67 33 -141.5 54.5t-152.5 21.5q-52 0 -96.5 -14t-77.5 -41t-51.5 -66.5t-18.5 -90.5q0 -58 23 -98t67 -73.5t107 -72.5q85 -53 146 -109t93 -125t32 -163q0 -113 -40.5 -196.5t-114 -139t-171.5 -83t-213 -27.5z" />
    <glyph glyph-name="uni0406" unicode="&#x406;" horiz-adv-x="605" 
d="M69 0l311 1462h236l-312 -1462h-235z" />
    <glyph glyph-name="uni0407" unicode="&#x407;" horiz-adv-x="605" 
d="M69 0l311 1462h236l-312 -1462h-235zM728 1640q-45 0 -74.5 23t-29.5 73q0 60 33 97.5t94 37.5q45 0 73 -22t28 -70q0 -64 -33.5 -101.5t-90.5 -37.5zM353 1640q-46 0 -75 23t-29 73q0 60 32.5 97.5t93.5 37.5q31 0 53.5 -9.5t35.5 -30t13 -52.5q0 -64 -33 -101.5
t-91 -37.5z" />
    <glyph glyph-name="uni0408" unicode="&#x408;" horiz-adv-x="614" 
d="M-150 -407q-56 0 -98.5 7.5t-73.5 17.5l3 200q33 -8 72 -14t84 -6q65 0 115 26.5t85.5 81.5t53.5 142l301 1414h237l-307 -1445q-33 -151 -95.5 -244.5t-156.5 -136.5t-220 -43z" />
    <glyph glyph-name="uni0409" unicode="&#x409;" horiz-adv-x="1897" 
d="M69 -21q-41 0 -75 7t-58 16v201q22 -8 47 -14t54 -6q53 0 97 23.5t85 87t85 182.5q32 84 67 193.5t72.5 237.5t76 268.5t76.5 286.5h756l-125 -591h93q170 0 272 -49.5t147.5 -135t45.5 -194.5q0 -126 -42 -218.5t-120 -153t-187.5 -90.5t-244.5 -30h-385l265 1257h-297
q-28 -108 -59.5 -224t-64.5 -229.5t-65 -214t-61 -179.5q-57 -153 -117.5 -248t-140.5 -139t-197 -44zM1084 200h139q82 0 142.5 19t100 55t59 88t19.5 118q0 99 -59.5 144.5t-170.5 45.5h-128z" />
    <glyph glyph-name="uni040A" unicode="&#x40a;" horiz-adv-x="1887" 
d="M70 0l309 1462h237l-126 -590h488l127 590h237l-126 -590h104q164 0 264.5 -48.5t146 -134t45.5 -195.5q0 -126 -42 -219.5t-120 -154t-186.5 -90.5t-240.5 -30h-391l141 670h-489l-142 -670h-236zM1074 200h144q107 0 177 33.5t104 95.5t34 147q0 102 -59 148t-170 46
h-128z" />
    <glyph glyph-name="uni040B" unicode="&#x40b;" horiz-adv-x="1446" 
d="M248 0l267 1258h-338l43 204h986l-43 -204h-411l-73 -345h254q187 0 279 -83t92 -240q0 -31 -5.5 -74.5t-16.5 -94.5l-86 -421h-239l97 451q7 32 10.5 62t3.5 50q0 71 -39.5 108.5t-140.5 37.5h-253l-151 -709h-236z" />
    <glyph glyph-name="uni040C" unicode="&#x40c;" horiz-adv-x="1183" 
d="M70 0l309 1462h237l-149 -696l624 696h275l-660 -726l385 -736h-266l-366 724l-153 -724h-236zM722 1597v25q35 39 76.5 92t81.5 108.5t70 102.5h262v-18q-22 -28 -61.5 -69t-88 -86t-96.5 -85.5t-88 -69.5h-156z" />
    <glyph glyph-name="uni040D" unicode="&#x40d;" horiz-adv-x="1489" 
d="M70 0l309 1462h221l-164 -769q-12 -55 -27.5 -122.5t-30.5 -131t-26 -106.5h7l856 1129h283l-309 -1462h-218l163 770q14 63 28 128.5t28.5 129t28.5 119.5l-6 2l-858 -1149h-285zM964 1597q-40 40 -85.5 95t-84.5 111.5t-62 100.5v21h245q14 -48 34.5 -100t45.5 -103.5
t51 -99.5v-25h-144z" />
    <glyph glyph-name="uni040E" unicode="&#x40e;" horiz-adv-x="1198" 
d="M204 -20q-47 0 -100 8.5t-89 21.5v216q41 -19 88 -29t93 -10q51 0 91.5 16t74.5 46t65.5 73t64.5 96l-297 1044h238l170 -651q8 -30 16.5 -64.5t16.5 -70.5t13 -71q22 50 45 98.5t47 88.5l382 670h262l-643 -1068q-84 -141 -160 -232.5t-165 -136.5t-213 -45zM797 1597
q-139 0 -218.5 38t-112.5 101t-33 138q0 15 2 31t4 26h206q-2 -16 -3 -28t-1 -24q0 -67 43 -101.5t130 -34.5q95 0 154.5 40.5t82.5 147.5h216q-23 -102 -76.5 -177t-148.5 -116t-245 -41z" />
    <glyph glyph-name="uni040F" unicode="&#x40f;" horiz-adv-x="1406" 
d="M386 -403l88 403h-404l309 1462h239l-268 -1258h563l266 1258h236l-309 -1462h-401l-86 -403h-233z" />
    <glyph glyph-name="uni0410" unicode="&#x410;" horiz-adv-x="1217" 
d="M-119 0l784 1462h275l166 -1462h-232l-41 407h-489l-210 -407h-253zM447 613h370l-33 359q-5 67 -11 141.5t-6 141.5h-6q-25 -65 -58 -134.5t-71 -142.5z" />
    <glyph glyph-name="uni0411" unicode="&#x411;" horiz-adv-x="1185" 
d="M70 0l309 1462h781l-43 -202h-545l-82 -389h112q169 0 271 -49.5t148 -136.5t46 -199q0 -124 -42 -215t-120.5 -151t-187.5 -90t-244 -30h-403zM347 200h148q116 0 188.5 33t107.5 94.5t35 144.5q0 105 -59.5 151.5t-171.5 46.5h-147z" />
    <glyph glyph-name="uni0412" unicode="&#x412;" horiz-adv-x="1250" 
d="M70 0l309 1462h402q138 0 238 -34t154.5 -106t54.5 -188q0 -99 -39.5 -175.5t-112 -126t-173.5 -69.5v-9q101 -27 164 -99.5t63 -188.5q0 -158 -74.5 -261.5t-203 -154t-292.5 -50.5h-490zM349 201h224q96 0 166.5 30t109 89t38.5 145q0 91 -56.5 146t-180.5 55h-202z
M488 859h200q85 0 151.5 24.5t105 76t38.5 131.5q0 84 -53.5 128t-170.5 44h-185z" />
    <glyph glyph-name="uni0413" unicode="&#x413;" horiz-adv-x="1005" 
d="M70 0l309 1462h779l-43 -202h-544l-267 -1260h-234z" />
    <glyph glyph-name="uni0414" unicode="&#x414;" horiz-adv-x="1381" 
d="M-183 -403l128 608h116q86 121 171 266.5t163.5 308t146 335.5t118.5 347h679l-266 -1257h184l-129 -608h-232l86 403h-849l-87 -403h-229zM326 205h504l225 1052h-235q-36 -112 -89.5 -248.5t-119.5 -280.5t-138.5 -279t-146.5 -244z" />
    <glyph glyph-name="uni0415" unicode="&#x415;" horiz-adv-x="1084" 
d="M70 0l309 1462h779l-43 -202h-542l-84 -397h507l-42 -201h-507l-98 -459h542l-43 -203h-778z" />
    <glyph glyph-name="uni0416" unicode="&#x416;" horiz-adv-x="1684" 
d="M-111 0l653 774l-322 688h243l313 -690l147 690h228l-147 -690l588 690h264l-627 -727l336 -735h-252l-319 725l-153 -725h-227l152 724l-604 -724h-273z" />
    <glyph glyph-name="uni0417" unicode="&#x417;" horiz-adv-x="1160" 
d="M428 -20q-133 0 -231 19.5t-177 60.5v212q83 -47 189 -73.5t211 -26.5q90 0 159 19t116.5 54.5t72 87t24.5 116.5q0 114 -85 164t-239 50h-175l40 190h162q101 0 191.5 23.5t148 79t57.5 153.5q0 87 -55.5 133.5t-155.5 46.5q-95 0 -184.5 -33.5t-176.5 -89.5l-89 166
q111 72 227.5 111.5t277.5 39.5q125 0 215 -43.5t138 -119t48 -170.5q0 -113 -49.5 -194t-139 -129t-207.5 -64v-6q92 -12 158 -54t101.5 -109t35.5 -155q0 -102 -38.5 -186.5t-114.5 -145.5t-190 -94t-265 -33z" />
    <glyph glyph-name="uni0418" unicode="&#x418;" horiz-adv-x="1489" 
d="M70 0l309 1462h221l-164 -769q-12 -55 -27.5 -122.5t-30.5 -131t-26 -106.5h7l856 1129h283l-309 -1462h-218l163 770q14 63 28 128.5t28.5 129t28.5 119.5l-6 2l-858 -1149h-285z" />
    <glyph glyph-name="uni0419" unicode="&#x419;" horiz-adv-x="1489" 
d="M70 0l309 1462h221l-164 -769q-12 -55 -27.5 -122.5t-30.5 -131t-26 -106.5h7l856 1129h283l-309 -1462h-218l163 770q14 63 28 128.5t28.5 129t28.5 119.5l-6 2l-858 -1149h-285zM961 1597q-139 0 -218.5 38t-112.5 101t-33 138q0 15 2 31t4 26h206q-2 -16 -3 -28
t-1 -24q0 -67 43 -101.5t130 -34.5q95 0 154.5 40.5t82.5 147.5h216q-23 -102 -76.5 -177t-148.5 -116t-245 -41z" />
    <glyph glyph-name="uni041A" unicode="&#x41a;" horiz-adv-x="1183" 
d="M70 0l309 1462h237l-149 -696l624 696h275l-660 -726l385 -736h-266l-366 724l-153 -724h-236z" />
    <glyph glyph-name="uni041B" unicode="&#x41b;" horiz-adv-x="1376" 
d="M69 -21q-41 0 -75 7t-58 16v201q22 -8 47 -14t54 -6q53 0 97 23.5t85 87t85 182.5q32 84 67 193.5t72.5 237.5t76 268.5t76.5 286.5h790l-312 -1462h-236l267 1257h-331q-22 -87 -47 -179t-51 -184t-52.5 -179t-51.5 -164.5t-48 -140.5q-57 -153 -117.5 -248t-140.5 -139
t-197 -44z" />
    <glyph glyph-name="uni041C" unicode="&#x41c;" horiz-adv-x="1758" 
d="M69 0l309 1462h321l109 -1153h8l609 1153h341l-307 -1462h-225l169 800q16 76 34 151.5t35.5 143.5t31.5 119h-7l-644 -1214h-207l-114 1214h-8q-4 -43 -15 -112t-25 -148.5t-30 -154.5l-168 -799h-217z" />
    <glyph glyph-name="uni041D" unicode="&#x41d;" horiz-adv-x="1414" 
d="M71 0l309 1462h237l-127 -598h570l126 598h236l-309 -1462h-237l140 660h-569l-140 -660h-236z" />
    <glyph glyph-name="uni041E" unicode="&#x41e;" horiz-adv-x="1486" 
d="M678 -20q-177 0 -297.5 69.5t-182 196.5t-61.5 297q0 120 21.5 235.5t63.5 220.5t105.5 194t147.5 154.5t188.5 101.5t228.5 36q256 0 392.5 -151t136.5 -410q0 -120 -19.5 -236.5t-60 -222t-101.5 -194t-143.5 -153.5t-187 -101.5t-231.5 -36.5zM692 185q73 0 137 26
t117.5 73.5t96 114.5t72 149t45.5 176.5t16 197.5q0 167 -78.5 263t-223.5 96q-75 0 -140.5 -26.5t-120.5 -76t-97.5 -117t-72.5 -149.5t-45.5 -174.5t-15.5 -192.5q0 -114 36.5 -195t106 -123t167.5 -42z" />
    <glyph glyph-name="uni041F" unicode="&#x41f;" horiz-adv-x="1406" 
d="M70 0l309 1462h1036l-309 -1462h-238l267 1258h-562l-267 -1258h-236z" />
    <glyph glyph-name="uni0420" unicode="&#x420;" horiz-adv-x="1204" 
d="M70 0l309 1462h368q167 0 268.5 -50t148 -140.5t46.5 -211.5q0 -126 -44.5 -221.5t-127.5 -160t-200.5 -97t-263.5 -32.5h-152l-116 -549h-236zM465 747h134q114 0 197 34.5t128.5 103t45.5 168.5q0 109 -60 159.5t-181 50.5h-155z" />
    <glyph glyph-name="uni0421" unicode="&#x421;" horiz-adv-x="1229" 
d="M664 -20q-170 0 -287.5 69.5t-178.5 196.5t-61 301q0 132 30.5 266t92.5 254.5t156 214t220.5 148t286.5 54.5q122 0 213.5 -23t178.5 -70l-93 -195q-64 36 -136 60t-163 24q-111 0 -198.5 -42t-152 -115t-106.5 -166.5t-63 -196t-21 -203.5q0 -179 83 -275.5t244 -96.5
q85 0 168.5 19t164.5 49v-204q-70 -26 -162.5 -47.5t-215.5 -21.5z" />
    <glyph glyph-name="uni0422" unicode="&#x422;" horiz-adv-x="1055" 
d="M291 0l266 1258h-380l43 204h998l-42 -204h-381l-266 -1258h-238z" />
    <glyph glyph-name="uni0423" unicode="&#x423;" horiz-adv-x="1198" 
d="M204 -20q-47 0 -100 8.5t-89 21.5v216q41 -19 88 -29t93 -10q51 0 91.5 16t74.5 46t65.5 73t64.5 96l-297 1044h238l170 -651q8 -30 16.5 -64.5t16.5 -70.5t13 -71q22 50 45 98.5t47 88.5l382 670h262l-643 -1068q-84 -141 -160 -232.5t-165 -136.5t-213 -45z" />
    <glyph glyph-name="uni0424" unicode="&#x424;" horiz-adv-x="1602" 
d="M557 -20l49 224q-162 12 -266 76t-154 167t-50 231q0 144 47 257t137 193t221 124.5t299 50.5l37 180h228l-37 -180q157 -11 261.5 -72t156.5 -161.5t52 -231.5q0 -130 -42.5 -243t-129.5 -199t-219 -136.5t-312 -54.5l-49 -225h-229zM646 396l152 713q-103 -3 -182 -35
t-132.5 -88t-81 -133t-27.5 -171q0 -85 31 -148t91.5 -98.5t148.5 -39.5zM875 396q106 7 185.5 41t133 91.5t80 135t26.5 169.5q0 80 -30.5 141t-91 96.5t-152.5 38.5z" />
    <glyph glyph-name="uni0425" unicode="&#x425;" horiz-adv-x="1156" 
d="M-112 0l588 769l-250 693h245l179 -544l405 544h264l-550 -711l274 -751h-255l-194 593l-442 -593h-264z" />
    <glyph glyph-name="uni0426" unicode="&#x426;" horiz-adv-x="1438" 
d="M963 -403l87 403h-981l309 1462h239l-267 -1257h551l266 1257h237l-267 -1263h187l-129 -602h-232z" />
    <glyph glyph-name="uni0427" unicode="&#x427;" horiz-adv-x="1342" 
d="M804 0l124 581q-72 -32 -169.5 -59.5t-203.5 -27.5q-96 0 -173 31.5t-122 98t-45 170.5q0 34 4 66.5t13 70.5l110 531h237l-108 -513q-6 -31 -10.5 -57.5t-4.5 -47.5q0 -71 42.5 -108.5t129.5 -37.5q91 0 178 23t163 55l145 686h238l-310 -1462h-238z" />
    <glyph glyph-name="uni0428" unicode="&#x428;" horiz-adv-x="2009" 
d="M69 0l309 1462h242l-267 -1257h458l266 1257h243l-267 -1257h458l266 1257h241l-309 -1462h-1640z" />
    <glyph glyph-name="uni0429" unicode="&#x429;" horiz-adv-x="2053" 
d="M1578 -403l86 403h-1595l309 1462h242l-267 -1257h458l267 1257h242l-267 -1257h458l267 1257h240l-267 -1263h188l-129 -602h-232z" />
    <glyph glyph-name="uni042A" unicode="&#x42a;" horiz-adv-x="1357" 
d="M252 0l266 1258h-341l43 204h578l-125 -591h106q170 0 272 -49.5t148 -136.5t46 -199q0 -124 -42.5 -215t-120.5 -151t-187 -90t-244 -30h-399zM531 200h142q115 0 188 33t107.5 94.5t34.5 144.5q0 105 -59.5 151.5t-170.5 46.5h-142z" />
    <glyph glyph-name="uni042B" unicode="&#x42b;" horiz-adv-x="1710" 
d="M70 0l309 1462h237l-126 -591h91q169 0 271.5 -49.5t148 -136.5t45.5 -199q0 -124 -42 -215t-120.5 -151t-187.5 -90t-244 -30h-382zM349 200h125q86 0 148 19t102.5 54.5t60 85.5t19.5 113q0 105 -59.5 151.5t-170.5 46.5h-125zM1169 0l309 1462h241l-309 -1462h-241z
" />
    <glyph glyph-name="uni042C" unicode="&#x42c;" horiz-adv-x="1176" 
d="M70 0l309 1462h237l-126 -591h108q170 0 272 -49.5t147.5 -136.5t45.5 -199q0 -124 -42 -215t-120 -151t-187.5 -90t-244.5 -30h-399zM349 200h142q87 0 149 19t102.5 54.5t60 85.5t19.5 113q0 105 -59.5 151.5t-170.5 46.5h-143z" />
    <glyph glyph-name="uni042D" unicode="&#x42d;" horiz-adv-x="1229" 
d="M395 -20q-111 0 -201 19t-171 62v218q62 -32 120.5 -53.5t117.5 -31.5t121 -10q139 0 240 55.5t166.5 160t99.5 250.5h-585l42 202h573q1 16 1.5 33t0.5 38q0 111 -33.5 190.5t-102 123t-170.5 43.5q-94 0 -168 -20t-156 -51l-61 193q85 35 190.5 58.5t221.5 23.5
q168 0 284.5 -65t178 -190t61.5 -303q0 -140 -27.5 -276.5t-85 -257t-148.5 -213.5t-217.5 -146t-291.5 -53z" />
    <glyph glyph-name="uni042E" unicode="&#x42e;" horiz-adv-x="2036" 
d="M1261 -20q-177 0 -291 73.5t-169.5 201t-55.5 288.5q0 30 1.5 59.5t3.5 57.5h-304l-140 -660h-236l309 1462h237l-127 -598h294q32 130 91.5 242.5t145.5 197.5t198 133t251 48q240 0 370 -150t130 -411q0 -122 -19 -239t-57 -222.5t-96.5 -193.5t-137 -153t-178 -100.5
t-220.5 -35.5zM1275 185q70 0 130.5 26.5t110.5 75.5t88.5 117t65.5 150t40.5 175t13.5 193q0 170 -72.5 264.5t-207.5 94.5q-69 0 -129 -26.5t-111 -76t-90.5 -117t-67 -149.5t-42 -174.5t-14.5 -192.5q0 -107 31 -188.5t94 -126.5t160 -45z" />
    <glyph glyph-name="uni042F" unicode="&#x42f;" horiz-adv-x="1216" 
d="M-100 0l515 663q-87 51 -142 126.5t-55 202.5q0 117 40.5 204.5t115.5 146.5t180 89t235 30h434l-308 -1462h-238l124 586h-177l-440 -586h-284zM708 785h135l102 478h-159q-72 0 -131 -15t-101.5 -47.5t-65.5 -83t-23 -121.5q0 -102 66 -156.5t177 -54.5z" />
    <glyph glyph-name="uni0430" unicode="&#x430;" horiz-adv-x="1188" 
d="M401 -20q-85 0 -154.5 41.5t-110.5 128t-41 220.5q0 116 24.5 226t70 206t110.5 169.5t147 115t177 41.5q72 0 126 -24.5t91 -65.5t60 -91h9l60 160h180l-235 -1107h-179l22 179h-8q-43 -55 -95.5 -100t-115.5 -72t-138 -27zM487 171q70 0 134 52.5t113.5 139.5t73.5 191
q12 50 16.5 95t4.5 90q0 87 -46 142t-126 55q-55 0 -104.5 -31t-89.5 -85.5t-69.5 -125.5t-45 -152.5t-15.5 -165.5q0 -101 40.5 -153t113.5 -52z" />
    <glyph glyph-name="uni0431" unicode="&#x431;" horiz-adv-x="1157" 
d="M506 -20q-125 0 -215 52t-138 157t-48 262q0 105 18.5 224t56.5 238t97 225t140 186t185 121q47 19 121 38t160 35t169.5 28.5t147.5 20.5l26 -198q-67 -9 -153.5 -23t-170 -30.5t-143.5 -34.5q-88 -24 -158 -77t-121 -140t-84 -214l6 -2q56 69 145 125.5t208 56.5
q101 0 168.5 -44t101.5 -126t34 -198q0 -125 -32.5 -246.5t-99 -220t-171 -157t-250.5 -58.5zM528 173q59 0 106 29t82.5 79t59 112t35 128t11.5 128q0 99 -37 149t-112 50q-63 0 -122 -32t-106.5 -78t-78.5 -89q-10 -49 -17 -103.5t-7 -102.5q0 -81 18.5 -142t59.5 -94.5
t108 -33.5z" />
    <glyph glyph-name="uni0432" unicode="&#x432;" horiz-adv-x="1137" 
d="M547 -20q-150 0 -250.5 54.5t-150.5 155.5t-50 241q0 114 25 217.5t74.5 191t122 151.5t167.5 100t210 36q118 0 203 -33.5t131.5 -97.5t46.5 -156q0 -82 -34 -137.5t-93 -89t-135 -50.5v-6q83 -21 139 -73.5t56 -155.5q0 -85 -47 -165t-148.5 -131.5t-266.5 -51.5z
M555 153q75 0 124 24.5t73.5 65t24.5 89.5t-24.5 81t-77 48.5t-137.5 16.5h-206q0 -13 -0.5 -28.5t-0.5 -31.5q0 -140 62 -202.5t162 -62.5zM362 649h209q77 0 138.5 17.5t98 55.5t36.5 101q0 55 -38.5 90.5t-116.5 35.5t-143 -36.5t-111.5 -103.5t-72.5 -160z" />
    <glyph glyph-name="uni0433" unicode="&#x433;" horiz-adv-x="956" 
d="M401 -20q-98 0 -181.5 29.5t-134 95t-50.5 170.5q0 86 33 146.5t87.5 102t122 71t136.5 53.5q93 33 148 60t79 57.5t24 75.5q0 47 -31.5 75.5t-106.5 28.5t-146 -21.5t-137 -53.5l-60 173q73 32 168.5 58t208.5 26q97 0 173.5 -28t121.5 -88.5t45 -160.5
q0 -82 -30.5 -139.5t-83 -98.5t-120 -71t-142.5 -57q-81 -30 -137.5 -55.5t-86 -59t-29.5 -84.5q0 -56 40.5 -90t132.5 -34q57 0 112 12t107.5 32.5t100.5 42.5v-187q-77 -37 -162 -59t-202 -22z" />
    <glyph glyph-name="uni0434" unicode="&#x434;" horiz-adv-x="1192" 
d="M491 -20q-134 0 -222 54t-131 149t-43 218q0 105 22 202t64.5 178.5t103 142t137.5 94t170 33.5q76 0 130.5 -25t92.5 -66.5t62 -91.5h7q2 17 2 36v32q0 227 -65 335.5t-206 108.5q-50 0 -107 -12t-102 -32l-53 182q58 24 136.5 39t158.5 15q166 0 270.5 -75t153.5 -217
t49 -342q0 -109 -15.5 -222t-47.5 -220t-82.5 -200.5t-120.5 -164.5t-160.5 -111t-203.5 -40zM508 173q57 0 104.5 26.5t85.5 74t68 111t51 137t34 152.5q-16 55 -45.5 99.5t-71.5 70.5t-99 26q-52 0 -98 -23t-84 -65t-65 -100.5t-42 -130.5t-15 -154q0 -100 43.5 -162
t133.5 -62z" />
    <glyph glyph-name="uni0435" unicode="&#x435;" horiz-adv-x="1081" 
d="M515 -20q-127 0 -221.5 48.5t-146 143t-51.5 231.5q0 136 39 265.5t115 233.5t185 165t248 61q170 0 255.5 -76.5t85.5 -202.5q0 -86 -39 -157t-118.5 -122.5t-201 -79.5t-285.5 -28h-45q-1 -15 -2 -30.5t-1 -30.5q0 -111 58 -174.5t169 -63.5q84 0 155 21t159 63v-185
q-81 -39 -164 -60.5t-194 -21.5zM364 632h34q122 0 212 23.5t139 70t49 113.5q0 52 -32.5 81.5t-96.5 29.5q-63 0 -124 -38.5t-109 -110t-72 -169.5z" />
    <glyph glyph-name="uni0436" unicode="&#x436;" horiz-adv-x="1833" 
d="M101 -20q-36 0 -69 4t-58 10l36 187q20 -4 42 -7t45 -3q66 0 118.5 30.5t92 83.5t66.5 121t40.5 143t13.5 149q0 110 -42 174t-128 64q-32 0 -59.5 -6t-57.5 -15v191q30 8 69.5 15t87.5 7q170 0 266 -110t96 -315q0 -17 -0.5 -34t-2.5 -32h167l101 470h221l-101 -470h159
q22 94 65.5 181.5t109 157.5t154.5 111t202 41q39 0 72.5 -4t62.5 -11l-41 -187q-21 4 -44 7t-47 3q-65 0 -117.5 -31t-91.5 -84t-65.5 -120.5t-39.5 -142.5t-13 -149q0 -110 41 -174t128 -64q34 0 60 6t55 15v-191q-27 -7 -67 -14t-88 -7q-113 0 -194 48t-124.5 142.5
t-43.5 231.5q0 19 1 37.5t2 31.5h-171l-100 -471h-220l100 471h-157q-23 -98 -67.5 -186.5t-110.5 -157t-154.5 -108t-199.5 -39.5z" />
    <glyph glyph-name="uni0437" unicode="&#x437;" horiz-adv-x="989" 
d="M354 -20q-101 0 -192.5 20.5t-149.5 51.5v202q60 -33 148 -60.5t196 -27.5q79 0 140.5 19.5t97.5 60t36 101.5q0 66 -44.5 104t-150.5 38h-161l38 175h113q78 0 140 13.5t98 48.5t36 100q0 55 -39 87t-125 32q-70 0 -144.5 -20t-155.5 -55l-60 174q90 38 186 61t211 23
q108 0 189 -29t126.5 -88t45.5 -150q0 -77 -32.5 -133t-90 -92t-135.5 -55v-6q85 -23 136 -79t51 -151q0 -107 -55.5 -189.5t-168 -129t-284.5 -46.5z" />
    <glyph glyph-name="uni0438" unicode="&#x438;" horiz-adv-x="1209" 
d="M391 -20q-89 0 -151.5 35t-95 101.5t-32.5 159.5q0 41 6.5 90.5t16.5 102.5l136 638h234l-143 -672q-7 -39 -11.5 -70.5t-4.5 -57.5q0 -67 31.5 -101.5t98.5 -34.5q72 0 140.5 54.5t124.5 158.5t87 251l100 472h232l-234 -1107h-184l24 210h-10q-40 -59 -93 -111.5
t-120 -85.5t-152 -33z" />
    </font>
</defs>
</svg>
